  0
SECTION
  2
HEADER
  9
$ACADVER
  1
AC1015
  9
$ACADMAINTVER
 70
     6
  9
$DWGCODEPAGE
  3
ANSI_932
  9
$INSBASE
 10
0.0
 20
0.0
 30
0.0
  9
$EXTMIN
 10
-312.0968583463661
 20
-16.92088687933187
 30
-0.0000000100016779
  9
$EXTMAX
 10
-149.8364649531283
 20
215.4091772755607
 30
0.0000000100016785
  9
$LIMMIN
 10
11.24375813802083
 20
9.51604275173611
  9
$LIMMAX
 10
214.2194824218749
 20
283.6999959309895
  9
$ORTHOMODE
 70
     0
  9
$REGENMODE
 70
     1
  9
$FILLMODE
 70
     1
  9
$QTEXTMODE
 70
     0
  9
$MIRRTEXT
 70
     1
  9
$LTSCALE
 40
1.0
  9
$ATTMODE
 70
     1
  9
$TEXTSIZE
 40
0.0
  9
$TRACEWID
 40
0.05
  9
$TEXTSTYLE
  7
Standard
  9
$CLAYER
  8
0
  9
$CELTYPE
  6
ByLayer
  9
$CECOLOR
 62
   256
  9
$CELTSCALE
 40
1.0
  9
$DISPSILH
 70
     0
  9
$DIMSCALE
 40
1.0
  9
$DIMASZ
 40
2.0
  9
$DIMEXO
 40
2.0
  9
$DIMDLI
 40
3.75
  9
$DIMRND
 40
0.0
  9
$DIMDLE
 40
0.0
  9
$DIMEXE
 40
0.5
  9
$DIMTP
 40
0.0
  9
$DIMTM
 40
0.0
  9
$DIMTXT
 40
2.5
  9
$DIMCEN
 40
2.0
  9
$DIMTSZ
 40
0.0
  9
$DIMTOL
 70
     0
  9
$DIMLIM
 70
     0
  9
$DIMTIH
 70
     0
  9
$DIMTOH
 70
     0
  9
$DIMSE1
 70
     0
  9
$DIMSE2
 70
     0
  9
$DIMTAD
 70
     1
  9
$DIMZIN
 70
     8
  9
$DIMBLK
  1

  9
$DIMASO
 70
     1
  9
$DIMSHO
 70
     1
  9
$DIMPOST
  1

  9
$DIMAPOST
  1

  9
$DIMALT
 70
     0
  9
$DIMALTD
 70
     3
  9
$DIMALTF
 40
0.03937007874016
  9
$DIMLFAC
 40
1.0
  9
$DIMTOFL
 70
     1
  9
$DIMTVP
 40
0.0
  9
$DIMTIX
 70
     1
  9
$DIMSOXD
 70
     1
  9
$DIMSAH
 70
     0
  9
$DIMBLK1
  1

  9
$DIMBLK2
  1

  9
$DIMSTYLE
  2
ISO-25 1／10
  9
$DIMCLRD
 70
     0
  9
$DIMCLRE
 70
     0
  9
$DIMCLRT
 70
     0
  9
$DIMTFAC
 40
1.0
  9
$DIMGAP
 40
0.75
  9
$DIMJUST
 70
     0
  9
$DIMSD1
 70
     0
  9
$DIMSD2
 70
     0
  9
$DIMTOLJ
 70
     0
  9
$DIMTZIN
 70
     8
  9
$DIMALTZ
 70
     0
  9
$DIMALTTZ
 70
     0
  9
$DIMUPT
 70
     0
  9
$DIMDEC
 70
     8
  9
$DIMTDEC
 70
     8
  9
$DIMALTU
 70
     2
  9
$DIMALTTD
 70
     3
  9
$DIMTXSTY
  7
Standard
  9
$DIMAUNIT
 70
     0
  9
$DIMADEC
 70
     0
  9
$DIMALTRND
 40
0.0
  9
$DIMAZIN
 70
     0
  9
$DIMDSEP
 70
    46
  9
$DIMATFIT
 70
     3
  9
$DIMFRAC
 70
     0
  9
$DIMLDRBLK
  1

  9
$DIMLUNIT
 70
     2
  9
$DIMLWD
 70
    -2
  9
$DIMLWE
 70
    -2
  9
$DIMTMOVE
 70
     0
  9
$LUNITS
 70
     2
  9
$LUPREC
 70
     4
  9
$SKETCHINC
 40
0.1
  9
$FILLETRAD
 40
3.0
  9
$AUNITS
 70
     0
  9
$AUPREC
 70
     0
  9
$MENU
  1
acad
  9
$ELEVATION
 40
0.0
  9
$PELEVATION
 40
0.0
  9
$THICKNESS
 40
0.0
  9
$LIMCHECK
 70
     0
  9
$CHAMFERA
 40
0.0
  9
$CHAMFERB
 40
0.0
  9
$CHAMFERC
 40
0.0
  9
$CHAMFERD
 40
0.0
  9
$SKPOLY
 70
     0
  9
$TDCREATE
 40
2460395.369246990
  9
$TDUCREATE
 40
2460394.994246990
  9
$TDUPDATE
 40
2460398.388101747
  9
$TDUUPDATE
 40
2460398.013101748
  9
$TDINDWG
 40
0.0275784144
  9
$TDUSRTIMER
 40
0.0275784144
  9
$USRTIMER
 70
     1
  9
$ANGBASE
 50
0.0
  9
$ANGDIR
 70
     0
  9
$PDMODE
 70
     0
  9
$PDSIZE
 40
0.0
  9
$PLINEWID
 40
0.0
  9
$SPLFRAME
 70
     0
  9
$SPLINETYPE
 70
     6
  9
$SPLINESEGS
 70
     8
  9
$HANDSEED
  5
91A
  9
$SURFTAB1
 70
     6
  9
$SURFTAB2
 70
     6
  9
$SURFTYPE
 70
     6
  9
$SURFU
 70
     6
  9
$SURFV
 70
     6
  9
$UCSBASE
  2

  9
$UCSNAME
  2

  9
$UCSORG
 10
0.0
 20
0.0
 30
0.0
  9
$UCSXDIR
 10
1.0
 20
0.0
 30
0.0
  9
$UCSYDIR
 10
0.0
 20
1.0
 30
0.0
  9
$UCSORTHOREF
  2

  9
$UCSORTHOVIEW
 70
     0
  9
$UCSORGTOP
 10
0.0
 20
0.0
 30
0.0
  9
$UCSORGBOTTOM
 10
0.0
 20
0.0
 30
0.0
  9
$UCSORGLEFT
 10
0.0
 20
0.0
 30
0.0
  9
$UCSORGRIGHT
 10
0.0
 20
0.0
 30
0.0
  9
$UCSORGFRONT
 10
0.0
 20
0.0
 30
0.0
  9
$UCSORGBACK
 10
0.0
 20
0.0
 30
0.0
  9
$PUCSBASE
  2

  9
$PUCSNAME
  2

  9
$PUCSORG
 10
0.0
 20
0.0
 30
0.0
  9
$PUCSXDIR
 10
1.0
 20
0.0
 30
0.0
  9
$PUCSYDIR
 10
0.0
 20
1.0
 30
0.0
  9
$PUCSORTHOREF
  2

  9
$PUCSORTHOVIEW
 70
     0
  9
$PUCSORGTOP
 10
0.0
 20
0.0
 30
0.0
  9
$PUCSORGBOTTOM
 10
0.0
 20
0.0
 30
0.0
  9
$PUCSORGLEFT
 10
0.0
 20
0.0
 30
0.0
  9
$PUCSORGRIGHT
 10
0.0
 20
0.0
 30
0.0
  9
$PUCSORGFRONT
 10
0.0
 20
0.0
 30
0.0
  9
$PUCSORGBACK
 10
0.0
 20
0.0
 30
0.0
  9
$USERI1
 70
     0
  9
$USERI2
 70
     0
  9
$USERI3
 70
     0
  9
$USERI4
 70
     0
  9
$USERI5
 70
     0
  9
$USERR1
 40
0.0
  9
$USERR2
 40
0.0
  9
$USERR3
 40
0.0
  9
$USERR4
 40
0.0
  9
$USERR5
 40
0.0
  9
$WORLDVIEW
 70
     1
  9
$SHADEDGE
 70
     3
  9
$SHADEDIF
 70
    70
  9
$TILEMODE
 70
     1
  9
$MAXACTVP
 70
    16
  9
$PINSBASE
 10
0.0
 20
0.0
 30
0.0
  9
$PLIMCHECK
 70
     0
  9
$PEXTMIN
 10
1.000000000000000E+20
 20
1.000000000000000E+20
 30
1.000000000000000E+20
  9
$PEXTMAX
 10
-1.000000000000000E+20
 20
-1.000000000000000E+20
 30
-1.000000000000000E+20
  9
$PLIMMIN
 10
0.0
 20
0.0
  9
$PLIMMAX
 10
12.0
 20
9.0
  9
$UNITMODE
 70
     0
  9
$VISRETAIN
 70
     0
  9
$PLINEGEN
 70
     1
  9
$PSLTSCALE
 70
     0
  9
$TREEDEPTH
 70
  3020
  9
$CMLSTYLE
  2
Standard
  9
$CMLJUST
 70
     0
  9
$CMLSCALE
 40
1.0
  9
$PROXYGRAPHICS
 70
     0
  9
$MEASUREMENT
 70
     1
  9
$CELWEIGHT
370
    13
  9
$ENDCAPS
280
     0
  9
$JOINSTYLE
280
     0
  9
$LWDISPLAY
290
     0
  9
$INSUNITS
 70
     0
  9
$HYPERLINKBASE
  1

  9
$STYLESHEET
  1
monochrome.ctb
  9
$XEDIT
290
     1
  9
$CEPSNTYPE
380
     0
  9
$PSTYLEMODE
290
     1
  9
$FINGERPRINTGUID
  2

  9
$VERSIONGUID
  2
{35524A22-95CA-4E18-BF35-B9C7551D7256}
  9
$EXTNAMES
290
     1
  9
$PSVPSCALE
 40
0.0
  9
$OLESTARTUP
290
     0
  0
ENDSEC
  0
SECTION
  2
CLASSES
  0
CLASS
  1
LWPOLYLINE
  2
AcDbPolyline
  3
AutoCAD 2000
 90
    32768
280
     0
281
     1
  0
CLASS
  1
IMAGE
  2
AcDbRasterImage
  3
ISM
 90
    32895
280
     0
281
     1
  0
CLASS
  1
OLE2FRAME
  2
AcDbOle2Frame
  3
AutoCAD 2000
 90
    32768
280
     0
281
     1
  0
CLASS
  1
HATCH
  2
AcDbHatch
  3
AutoCAD 2000
 90
    32768
280
     0
281
     1
  0
CLASS
  1
DICTIONARYVAR
  2
AcDbDictionaryVar
  3
AutoCAD 2000
 90
    32768
280
     0
281
     0
  0
CLASS
  1
RASTERVARIABLES
  2
AcDbRasterVariables
  3
ISM
 90
        0
280
     0
281
     0
  0
CLASS
  1
IMAGEDEF
  2
AcDbRasterImageDef
  3
ISM
 90
    32768
280
     0
281
     0
  0
CLASS
  1
IMAGEDEF_REACTOR
  2
AcDbRasterImageDefReactor
  3
ISM
 90
    32769
280
     0
281
     0
  0
CLASS
  1
IDBUFFER
  2
AcDbIdBuffer
  3
AutoCAD 2000
 90
    32768
280
     0
281
     0
  0
CLASS
  1
SPATIAL_FILTER
  2
AcDbSpatialFilter
  3
AutoCAD 2000
 90
    32768
280
     0
281
     0
  0
CLASS
  1
XRECORD
  2
AcDbXrecord
  3
AutoCAD 2000
 90
    32768
280
     0
281
     0
  0
CLASS
  1
SORTENTSTABLE
  2
AcDbSortentsTable
  3
AutoCAD 2000
 90
    32768
280
     0
281
     0
  0
CLASS
  1
LAYER_INDEX
  2
AcDbLayerIndex
  3
AutoCAD 2000
 90
    32768
280
     0
281
     0
  0
CLASS
  1
SPATIAL_INDEX
  2
AcDbSpatialIndex
  3
AutoCAD 2000
 90
    32768
280
     0
281
     0
  0
CLASS
  1
OBJECT_PTR
  2
CAseDLPNTableRecord
  3
"ASE-LPNTableRecord"
 90
    32769
280
     0
281
     0
  0
CLASS
  1
LAYOUT
  2
AcDbLayout
  3
AutoCAD 2000
 90
        0
280
     0
281
     0
  0
CLASS
  1
PLOTSETTINGS
  2
AcDbPlotSettings
  3
AutoCAD 2000
 90
    32768
280
     0
281
     0
  0
CLASS
  1
ACDBDICTIONARYWDFLT
  2
AcDbDictionaryWithDefault
  3
AutoCAD 2000
 90
        0
280
     0
281
     0
  0
CLASS
  1
ACDBPLACEHOLDER
  2
AcDbPlaceHolder
  3
AutoCAD 2000
 90
        0
280
     0
281
     0
  0
CLASS
  1
VBA_PROJECT
  2
AcDbVbaProject
  3
acadvba
 90
    32768
280
     0
281
     0
  0
CLASS
  1
WIPEOUT
  2
AcDbWipeout
  3
WipeOut|AutoCAD Express Tool|expresstools@autodesk.com
 90
    32895
280
     0
281
     1
  0
CLASS
  1
WIPEOUTVARIABLES
  2
AcDbWipeoutVariables
  3
WipeOut|AutoCAD Express Tool|expresstools@autodesk.com
 90
        0
280
     0
281
     0
  0
CLASS
  1
RTEXT
  2
RText
  3
RText|AutoCAD Express Tool|expresstools@autodesk.com
 90
    32768
280
     0
281
     1
  0
CLASS
  1
ARCALIGNEDTEXT
  2
AcDbArcAlignedText
  3
ATEXT|AutoCAD Express Tool|expresstools@autodesk.com
 90
    32768
280
     0
281
     1
  0
ENDSEC
  0
SECTION
  2
TABLES
  0
TABLE
  2
VPORT
  5
7
330
0
100
AcDbSymbolTable
 70
     2
  0
VPORT
  5
919
330
7
100
AcDbSymbolTableRecord
100
AcDbViewportTableRecord
  2
*Active
 70
     0
 10
0.0
 20
0.0
 11
1.0
 21
1.0
 12
-238.2363248353466
 22
88.77997475255918
 13
0.0
 23
0.0
 14
1.0
 24
1.0
 15
0.0
 25
0.0
 16
0.0
 26
0.0
 36
1.0
 17
0.0
 27
0.0
 37
0.0
 40
311.1763421331189
 41
2.165492957746478
 42
50.0
 43
0.0
 44
0.0
 50
0.0
 51
0.0
 71
     0
 72
   100
 73
     1
 74
     1
 75
     0
 76
     0
 77
     0
 78
     0
281
     0
 65
     0
110
0.0
120
0.0
130
0.0
111
1.0
121
0.0
131
0.0
112
0.0
122
1.0
132
0.0
 79
     0
146
0.0
  0
ENDTAB
  0
TABLE
  2
LTYPE
  5
4
330
0
100
AcDbSymbolTable
 70
     1
  0
LTYPE
  5
11
330
4
100
AcDbSymbolTableRecord
100
AcDbLinetypeTableRecord
  2
ByBlock
 70
     0
  3

 72
    65
 73
     0
 40
0.0
  0
LTYPE
  5
12
330
4
100
AcDbSymbolTableRecord
100
AcDbLinetypeTableRecord
  2
ByLayer
 70
     0
  3

 72
    65
 73
     0
 40
0.0
  0
LTYPE
  5
13
330
4
100
AcDbSymbolTableRecord
100
AcDbLinetypeTableRecord
  2
Continuous
 70
     0
  3
Solid line
 72
    65
 73
     0
 40
0.0
  0
ENDTAB
  0
TABLE
  2
LAYER
  5
2
102
{ACAD_XDICTIONARY
360
2C8
102
}
330
0
100
AcDbSymbolTable
 70
     4
  0
LAYER
  5
14
330
2
100
AcDbSymbolTableRecord
100
AcDbLayerTableRecord
  2
0
 70
     0
 62
     7
  6
Continuous
370
    -3
390
1D
  0
LAYER
  5
50C
330
2
100
AcDbSymbolTableRecord
100
AcDbLayerTableRecord
  2
Defpoints
 70
     0
 62
     2
  6
Continuous
290
     0
370
    -3
390
1D
  0
LAYER
  5
50D
330
2
100
AcDbSymbolTableRecord
100
AcDbLayerTableRecord
  2
寸法
 70
     0
 62
     6
  6
Continuous
370
    -3
390
1D
  0
LAYER
  5
8F6
330
2
100
AcDbSymbolTableRecord
100
AcDbLayerTableRecord
  2
文字
 70
     0
 62
    30
  6
Continuous
370
    -3
390
1D
  0
ENDTAB
  0
TABLE
  2
STYLE
  5
3
330
0
100
AcDbSymbolTable
 70
     1
  0
STYLE
  5
17
330
3
100
AcDbSymbolTableRecord
100
AcDbTextStyleTableRecord
  2
Standard
 70
     0
 40
0.0
 41
1.0
 50
0.0
 71
     0
 42
0.0
  3
txt
  4

  0
ENDTAB
  0
TABLE
  2
VIEW
  5
5
330
0
100
AcDbSymbolTable
 70
     0
  0
ENDTAB
  0
TABLE
  2
UCS
  5
6
330
0
100
AcDbSymbolTable
 70
     0
  0
ENDTAB
  0
TABLE
  2
APPID
  5
8
330
0
100
AcDbSymbolTable
 70
     1
  0
APPID
  5
16
330
8
100
AcDbSymbolTableRecord
100
AcDbRegAppTableRecord
  2
ACAD
 70
     0
  0
ENDTAB
  0
TABLE
  2
DIMSTYLE
  5
9
330
0
100
AcDbSymbolTable
 70
     2
100
AcDbDimStyleTable
 71
     2
340
50E
340
18
  0
DIMSTYLE
105
18
330
9
100
AcDbSymbolTableRecord
100
AcDbDimStyleTableRecord
  2
Standard
 70
     0
289
     0
340
17
  0
DIMSTYLE
105
50E
102
{ACAD_REACTORS
330
515
330
697
330
792
330
7C3
330
860
330
888
330
8A7
102
}
330
9
100
AcDbSymbolTableRecord
100
AcDbDimStyleTableRecord
  2
ISO-25 1／10
 70
     0
 41
2.0
 42
2.0
 43
3.75
 44
0.5
 73
     0
 74
     0
 77
     1
 78
     8
140
2.5
141
2.0
143
0.03937007874016
147
0.75
171
     3
172
     1
174
     1
175
     1
271
     8
272
     8
274
     3
283
     0
284
     8
340
17
  0
ENDTAB
  0
TABLE
  2
BLOCK_RECORD
  5
1
330
0
100
AcDbSymbolTable
 70
     7
  0
BLOCK_RECORD
  5
A
330
1
100
AcDbSymbolTableRecord
100
AcDbBlockTableRecord
  2
*MODEL_SPACE
340
20
  0
BLOCK_RECORD
  5
B
330
1
100
AcDbSymbolTableRecord
100
AcDbBlockTableRecord
  2
*PAPER_SPACE
340
21
  0
BLOCK_RECORD
  5
516
330
1
100
AcDbSymbolTableRecord
100
AcDbBlockTableRecord
  2
*D0
340
0
  0
BLOCK_RECORD
  5
698
330
1
100
AcDbSymbolTableRecord
100
AcDbBlockTableRecord
  2
*D1
340
0
  0
BLOCK_RECORD
  5
793
330
1
100
AcDbSymbolTableRecord
100
AcDbBlockTableRecord
  2
*D2
340
0
  0
BLOCK_RECORD
  5
7C4
330
1
100
AcDbSymbolTableRecord
100
AcDbBlockTableRecord
  2
*D3
340
0
  0
BLOCK_RECORD
  5
861
330
1
100
AcDbSymbolTableRecord
100
AcDbBlockTableRecord
  2
*D4
340
0
  0
BLOCK_RECORD
  5
889
330
1
100
AcDbSymbolTableRecord
100
AcDbBlockTableRecord
  2
*D5
340
0
  0
BLOCK_RECORD
  5
8A8
330
1
100
AcDbSymbolTableRecord
100
AcDbBlockTableRecord
  2
*D6
340
0
  0
ENDTAB
  0
ENDSEC
  0
SECTION
  2
BLOCKS
  0
BLOCK
  5
D
330
A
100
AcDbEntity
  8
0
100
AcDbBlockBegin
  2
*MODEL_SPACE
 70
     0
 10
0.0
 20
0.0
 30
0.0
  3
*MODEL_SPACE
  1

  0
ENDBLK
  5
E
330
A
100
AcDbEntity
  8
0
100
AcDbBlockEnd
  0
BLOCK
  5
F
330
B
100
AcDbEntity
 67
     1
  8
0
100
AcDbBlockBegin
  2
*PAPER_SPACE
 70
     0
 10
0.0
 20
0.0
 30
0.0
  3
*PAPER_SPACE
  1

  0
ENDBLK
  5
10
330
B
100
AcDbEntity
 67
     1
  8
0
100
AcDbBlockEnd
  0
BLOCK
  5
520
330
516
100
AcDbEntity
  8
0
370
     0
100
AcDbBlockBegin
  2
*D0
 70
     1
 10
0.0
 20
0.0
 30
0.0
  3
*D0
  1

  0
LINE
  5
6F5
330
516
100
AcDbEntity
  8
寸法
 62
     0
370
    -2
100
AcDbLine
 10
-258.8227718842142
 20
18.85695318213014
 30
0.0
 11
-258.8227718842142
 21
15.35695318213002
 31
0.0
  0
LINE
  5
6F6
330
516
100
AcDbEntity
  8
寸法
 62
     0
370
    -2
100
AcDbLine
 10
-303.8227722357621
 20
18.85695318213014
 30
0.0
 11
-303.8227722357621
 21
15.35695318213002
 31
0.0
  0
LINE
  5
6F7
330
516
100
AcDbEntity
  8
寸法
 62
     0
370
    -2
100
AcDbLine
 10
-260.8227718842142
 20
15.85695318213002
 30
0.0
 11
-301.8227722357621
 21
15.85695318213002
 31
0.0
  0
SOLID
  5
6F8
330
516
100
AcDbEntity
  8
寸法
 62
     0
370
     0
100
AcDbTrace
 10
-260.8227718842142
 20
16.19028651546336
 30
0.0
 11
-260.8227718842142
 21
15.52361984879669
 31
0.0
 12
-258.8227718842142
 22
15.85695318213002
 32
0.0
 13
-258.8227718842142
 23
15.85695318213002
 33
0.0
  0
SOLID
  5
6F9
330
516
100
AcDbEntity
  8
寸法
 62
     0
370
     0
100
AcDbTrace
 10
-301.8227722357621
 20
16.19028651546336
 30
0.0
 11
-301.8227722357621
 21
15.52361984879669
 31
0.0
 12
-303.8227722357621
 22
15.85695318213002
 32
0.0
 13
-303.8227722357621
 23
15.85695318213002
 33
0.0
  0
MTEXT
  5
6FA
330
516
100
AcDbEntity
  8
寸法
 62
     0
370
    13
100
AcDbMText
 10
-281.3227720599881
 20
17.85695318213002
 30
0.0
 40
2.5
 41
0.0
 71
     5
 72
     1
  1
45
 73
     1
 44
1.0
  0
POINT
  5
6FB
330
516
100
AcDbEntity
  8
Defpoints
 62
     0
370
     0
100
AcDbPoint
 10
-258.8227718842142
 20
20.85695318213014
 30
0.0
  0
POINT
  5
6FC
330
516
100
AcDbEntity
  8
Defpoints
 62
     0
370
     0
100
AcDbPoint
 10
-303.8227722357621
 20
20.85695318213014
 30
0.0
  0
POINT
  5
6FD
330
516
100
AcDbEntity
  8
Defpoints
 62
     0
370
     0
100
AcDbPoint
 10
-303.8227722357621
 20
15.85695318213002
 30
0.0
  0
ENDBLK
  5
521
330
516
100
AcDbEntity
  8
0
370
     0
100
AcDbBlockEnd
  0
BLOCK
  5
6A2
330
698
100
AcDbEntity
  8
0
370
     0
100
AcDbBlockBegin
  2
*D1
 70
     1
 10
0.0
 20
0.0
 30
0.0
  3
*D1
  1

  0
LINE
  5
6DA
330
698
100
AcDbEntity
  8
寸法
 62
     0
370
    -2
100
AcDbLine
 10
-291.1283219933165
 20
93.85695318213015
 30
0.0
 11
-309.3227722357621
 21
93.85695318213015
 31
0.0
  0
LINE
  5
6DB
330
698
100
AcDbEntity
  8
寸法
 62
     0
370
    -2
100
AcDbLine
 10
-305.8227722357621
 20
20.85695318213014
 30
0.0
 11
-309.3227722357621
 21
20.85695318213014
 31
0.0
  0
LINE
  5
6DC
330
698
100
AcDbEntity
  8
寸法
 62
     0
370
    -2
100
AcDbLine
 10
-308.8227722357621
 20
91.85695318213014
 30
0.0
 11
-308.8227722357621
 21
22.85695318213014
 31
0.0
  0
SOLID
  5
6DD
330
698
100
AcDbEntity
  8
寸法
 62
     0
370
     0
100
AcDbTrace
 10
-309.1561055690954
 20
91.85695318213014
 30
0.0
 11
-308.4894389024288
 21
91.85695318213014
 31
0.0
 12
-308.8227722357621
 22
93.85695318213015
 32
0.0
 13
-308.8227722357621
 23
93.85695318213015
 33
0.0
  0
SOLID
  5
6DE
330
698
100
AcDbEntity
  8
寸法
 62
     0
370
     0
100
AcDbTrace
 10
-309.1561055690954
 20
22.85695318213014
 30
0.0
 11
-308.4894389024288
 21
22.85695318213014
 31
0.0
 12
-308.8227722357621
 22
20.85695318213014
 32
0.0
 13
-308.8227722357621
 23
20.85695318213014
 33
0.0
  0
MTEXT
  5
6DF
330
698
100
AcDbEntity
  8
寸法
 62
     0
370
    13
100
AcDbMText
 10
-310.8227722357621
 20
57.35695318213009
 30
0.0
 40
2.5
 41
0.0
 71
     5
 72
     1
  1
73
 11
0.0000000000000001
 21
1.0
 31
0.0
 73
     1
 44
1.0
  0
POINT
  5
6E0
330
698
100
AcDbEntity
  8
Defpoints
 62
     0
370
     0
100
AcDbPoint
 10
-289.1283219933166
 20
93.85695318213015
 30
0.0
  0
POINT
  5
6E1
330
698
100
AcDbEntity
  8
Defpoints
 62
     0
370
     0
100
AcDbPoint
 10
-303.8227722357621
 20
20.85695318213014
 30
0.0
  0
POINT
  5
6E2
330
698
100
AcDbEntity
  8
Defpoints
 62
     0
370
     0
100
AcDbPoint
 10
-308.8227722357621
 20
20.85695318213014
 30
0.0
  0
ENDBLK
  5
6A3
330
698
100
AcDbEntity
  8
0
370
     0
100
AcDbBlockEnd
  0
BLOCK
  5
79D
330
793
100
AcDbEntity
  8
0
370
    13
100
AcDbBlockBegin
  2
*D2
 70
     1
 10
0.0
 20
0.0
 30
0.0
  3
*D2
  1

  0
LINE
  5
7BA
330
793
100
AcDbEntity
  8
寸法
 62
     0
370
    -2
100
AcDbLine
 10
-256.300301519746
 20
184.1554367652777
 30
0.0
 11
-256.300301519746
 21
212.6554367652778
 31
0.0
  0
LINE
  5
7BB
330
793
100
AcDbEntity
  8
寸法
 62
     0
370
    -2
100
AcDbLine
 10
-306.300301519746
 20
184.1554367652777
 30
0.0
 11
-306.300301519746
 21
212.6554367652778
 31
0.0
  0
LINE
  5
7BC
330
793
100
AcDbEntity
  8
寸法
 62
     0
370
    -2
100
AcDbLine
 10
-258.300301519746
 20
212.1554367652777
 30
0.0
 11
-304.300301519746
 21
212.1554367652777
 31
0.0
  0
SOLID
  5
7BD
330
793
100
AcDbEntity
  8
寸法
 62
     0
370
    13
100
AcDbTrace
 10
-258.300301519746
 20
212.4887700986111
 30
0.0
 11
-258.300301519746
 21
211.8221034319444
 31
0.0
 12
-256.300301519746
 22
212.1554367652777
 32
0.0
 13
-256.300301519746
 23
212.1554367652777
 33
0.0
  0
SOLID
  5
7BE
330
793
100
AcDbEntity
  8
寸法
 62
     0
370
    13
100
AcDbTrace
 10
-304.300301519746
 20
212.4887700986111
 30
0.0
 11
-304.300301519746
 21
211.8221034319444
 31
0.0
 12
-306.300301519746
 22
212.1554367652777
 32
0.0
 13
-306.300301519746
 23
212.1554367652777
 33
0.0
  0
MTEXT
  5
7BF
330
793
100
AcDbEntity
  8
寸法
 62
     0
370
    13
100
AcDbMText
 10
-281.300301519746
 20
214.1554367652777
 30
0.0
 40
2.5
 41
0.0
 71
     5
 72
     1
  1
50
 73
     1
 44
1.0
  0
POINT
  5
7C0
330
793
100
AcDbEntity
  8
Defpoints
 62
     0
370
    13
100
AcDbPoint
 10
-256.300301519746
 20
182.1554367652777
 30
0.0
  0
POINT
  5
7C1
330
793
100
AcDbEntity
  8
Defpoints
 62
     0
370
    13
100
AcDbPoint
 10
-306.300301519746
 20
182.1554367652777
 30
0.0
  0
POINT
  5
7C2
330
793
100
AcDbEntity
  8
Defpoints
 62
     0
370
    13
100
AcDbPoint
 10
-306.300301519746
 20
212.1554367652777
 30
0.0
  0
ENDBLK
  5
79E
330
793
100
AcDbEntity
  8
0
370
    13
100
AcDbBlockEnd
  0
BLOCK
  5
7CE
330
7C4
100
AcDbEntity
  8
0
370
    13
100
AcDbBlockBegin
  2
*D3
 70
     1
 10
0.0
 20
0.0
 30
0.0
  3
*D3
  1

  0
LINE
  5
857
330
7C4
100
AcDbEntity
  8
寸法
 62
     0
370
    -2
100
AcDbLine
 10
-187.3597964491373
 20
89.32837611620835
 30
0.0
 11
-190.8597964491372
 21
89.32837611620835
 31
0.0
  0
LINE
  5
858
330
7C4
100
AcDbEntity
  8
寸法
 62
     0
370
    -2
100
AcDbLine
 10
-187.3597964491373
 20
7.328376116208347
 30
0.0
 11
-190.8597964491373
 21
7.328376116208348
 31
0.0
  0
LINE
  5
859
330
7C4
100
AcDbEntity
  8
寸法
 62
     0
370
    -2
100
AcDbLine
 10
-190.3597964491373
 20
87.32837611620835
 30
0.0
 11
-190.3597964491373
 21
9.328376116208348
 31
0.0
  0
SOLID
  5
85A
330
7C4
100
AcDbEntity
  8
寸法
 62
     0
370
    13
100
AcDbTrace
 10
-190.6931297824706
 20
87.32837611620835
 30
0.0
 11
-190.0264631158039
 21
87.32837611620835
 31
0.0
 12
-190.3597964491373
 22
89.32837611620835
 32
0.0
 13
-190.3597964491373
 23
89.32837611620835
 33
0.0
  0
SOLID
  5
85B
330
7C4
100
AcDbEntity
  8
寸法
 62
     0
370
    13
100
AcDbTrace
 10
-190.6931297824706
 20
9.328376116208348
 30
0.0
 11
-190.0264631158039
 21
9.328376116208348
 31
0.0
 12
-190.3597964491373
 22
7.328376116208348
 32
0.0
 13
-190.3597964491373
 23
7.328376116208348
 33
0.0
  0
MTEXT
  5
85C
330
7C4
100
AcDbEntity
  8
寸法
 62
     0
370
    13
100
AcDbMText
 10
-192.3597964491373
 20
48.32837611620831
 30
0.0
 40
2.5
 41
0.0
 71
     5
 72
     1
  1
82
 11
0.0000000000000001
 21
1.0
 31
0.0
 73
     1
 44
1.0
  0
POINT
  5
85D
330
7C4
100
AcDbEntity
  8
Defpoints
 62
     0
370
    13
100
AcDbPoint
 10
-185.3597964491373
 20
89.32837611620835
 30
0.0
  0
POINT
  5
85E
330
7C4
100
AcDbEntity
  8
Defpoints
 62
     0
370
    13
100
AcDbPoint
 10
-185.3597964491373
 20
7.328376116208346
 30
0.0
  0
POINT
  5
85F
330
7C4
100
AcDbEntity
  8
Defpoints
 62
     0
370
    13
100
AcDbPoint
 10
-190.3597964491373
 20
7.328376116208348
 30
0.0
  0
ENDBLK
  5
7CF
330
7C4
100
AcDbEntity
  8
0
370
    13
100
AcDbBlockEnd
  0
BLOCK
  5
86B
330
861
100
AcDbEntity
  8
0
370
    13
100
AcDbBlockBegin
  2
*D4
 70
     1
 10
0.0
 20
0.0
 30
0.0
  3
*D4
  1

  0
LINE
  5
87F
330
861
100
AcDbEntity
  8
寸法
 62
     0
370
    -2
100
AcDbLine
 10
-179.3597964491373
 20
90.32837611620832
 30
0.0
 11
-179.3597964491373
 21
94.82837611620837
 31
0.0
  0
LINE
  5
880
330
861
100
AcDbEntity
  8
寸法
 62
     0
370
    -2
100
AcDbLine
 10
-185.3597964491373
 20
91.32837611620834
 30
0.0
 11
-185.3597964491373
 21
94.82837611620837
 31
0.0
  0
LINE
  5
881
330
861
100
AcDbEntity
  8
寸法
 62
     0
370
    -2
100
AcDbLine
 10
-181.3597964491373
 20
94.32837611620838
 30
0.0
 11
-183.3597964491373
 21
94.32837611620838
 31
0.0
  0
SOLID
  5
882
330
861
100
AcDbEntity
  8
寸法
 62
     0
370
    13
100
AcDbTrace
 10
-181.3597964491373
 20
94.66170944954169
 30
0.0
 11
-181.3597964491373
 21
93.99504278287505
 31
0.0
 12
-179.3597964491373
 22
94.32837611620838
 32
0.0
 13
-179.3597964491373
 23
94.32837611620838
 33
0.0
  0
SOLID
  5
883
330
861
100
AcDbEntity
  8
寸法
 62
     0
370
    13
100
AcDbTrace
 10
-183.3597964491373
 20
94.66170944954169
 30
0.0
 11
-183.3597964491373
 21
93.99504278287505
 31
0.0
 12
-185.3597964491373
 22
94.32837611620838
 32
0.0
 13
-185.3597964491373
 23
94.32837611620838
 33
0.0
  0
MTEXT
  5
884
330
861
100
AcDbEntity
  8
寸法
 62
     0
370
    13
100
AcDbMText
 10
-182.3597964491373
 20
96.32837611620837
 30
0.0
 40
2.5
 41
0.0
 71
     5
 72
     1
  1
6
 73
     1
 44
1.0
  0
POINT
  5
885
330
861
100
AcDbEntity
  8
Defpoints
 62
     0
370
    13
100
AcDbPoint
 10
-179.3597964491373
 20
88.32837611620833
 30
0.0
  0
POINT
  5
886
330
861
100
AcDbEntity
  8
Defpoints
 62
     0
370
    13
100
AcDbPoint
 10
-185.3597964491373
 20
89.32837611620835
 30
0.0
  0
POINT
  5
887
330
861
100
AcDbEntity
  8
Defpoints
 62
     0
370
    13
100
AcDbPoint
 10
-185.3597964491373
 20
94.32837611620838
 30
0.0
  0
ENDBLK
  5
86C
330
861
100
AcDbEntity
  8
0
370
    13
100
AcDbBlockEnd
  0
BLOCK
  5
893
330
889
100
AcDbEntity
  8
0
370
    13
100
AcDbBlockBegin
  2
*D5
 70
     1
 10
0.0
 20
0.0
 30
0.0
  3
*D5
  1

  0
LINE
  5
89E
330
889
100
AcDbEntity
  8
寸法
 62
     0
370
    -2
100
AcDbLine
 10
-179.3597964491373
 20
90.32837611620832
 30
0.0
 11
-179.3597964491373
 21
94.82837611620837
 31
0.0
  0
LINE
  5
89F
330
889
100
AcDbEntity
  8
寸法
 62
     0
370
    -2
100
AcDbLine
 10
-155.3597964491373
 20
75.32837611620834
 30
0.0
 11
-155.3597964491373
 21
94.82837611620837
 31
0.0
  0
LINE
  5
8A0
330
889
100
AcDbEntity
  8
寸法
 62
     0
370
    -2
100
AcDbLine
 10
-177.3597964491373
 20
94.32837611620838
 30
0.0
 11
-157.3597964491373
 21
94.32837611620838
 31
0.0
  0
SOLID
  5
8A1
330
889
100
AcDbEntity
  8
寸法
 62
     0
370
    13
100
AcDbTrace
 10
-177.3597964491373
 20
94.66170944954169
 30
0.0
 11
-177.3597964491373
 21
93.99504278287505
 31
0.0
 12
-179.3597964491373
 22
94.32837611620838
 32
0.0
 13
-179.3597964491373
 23
94.32837611620838
 33
0.0
  0
SOLID
  5
8A2
330
889
100
AcDbEntity
  8
寸法
 62
     0
370
    13
100
AcDbTrace
 10
-157.3597964491373
 20
94.66170944954169
 30
0.0
 11
-157.3597964491373
 21
93.99504278287505
 31
0.0
 12
-155.3597964491373
 22
94.32837611620838
 32
0.0
 13
-155.3597964491373
 23
94.32837611620838
 33
0.0
  0
MTEXT
  5
8A3
330
889
100
AcDbEntity
  8
寸法
 62
     0
370
    13
100
AcDbMText
 10
-167.3597964491373
 20
96.32837611620837
 30
0.0
 40
2.5
 41
0.0
 71
     5
 72
     1
  1
24
 73
     1
 44
1.0
  0
POINT
  5
8A4
330
889
100
AcDbEntity
  8
Defpoints
 62
     0
370
    13
100
AcDbPoint
 10
-179.3597964491373
 20
88.32837611620833
 30
0.0
  0
POINT
  5
8A5
330
889
100
AcDbEntity
  8
Defpoints
 62
     0
370
    13
100
AcDbPoint
 10
-155.3597964491373
 20
73.32837611620835
 30
0.0
  0
POINT
  5
8A6
330
889
100
AcDbEntity
  8
Defpoints
 62
     0
370
    13
100
AcDbPoint
 10
-155.3597964491373
 20
94.32837611620838
 30
0.0
  0
ENDBLK
  5
894
330
889
100
AcDbEntity
  8
0
370
    13
100
AcDbBlockEnd
  0
BLOCK
  5
8B2
330
8A8
100
AcDbEntity
  8
0
370
    13
100
AcDbBlockBegin
  2
*D6
 70
     1
 10
0.0
 20
0.0
 30
0.0
  3
*D6
  1

  0
LINE
  5
8CF
330
8A8
100
AcDbEntity
  8
寸法
 62
     0
370
    -2
100
AcDbLine
 10
-156.3597964491373
 20
76.32837611620835
 30
0.0
 11
-149.8597964491373
 21
76.32837611620835
 31
0.0
  0
LINE
  5
8D0
330
8A8
100
AcDbEntity
  8
寸法
 62
     0
370
    -2
100
AcDbLine
 10
-156.3597964491373
 20
20.32837611620834
 30
0.0
 11
-149.8597964491373
 21
20.32837611620834
 31
0.0
  0
LINE
  5
8D1
330
8A8
100
AcDbEntity
  8
寸法
 62
     0
370
    -2
100
AcDbLine
 10
-150.3597964491373
 20
74.32837611620835
 30
0.0
 11
-150.3597964491373
 21
22.32837611620834
 31
0.0
  0
SOLID
  5
8D2
330
8A8
100
AcDbEntity
  8
寸法
 62
     0
370
    13
100
AcDbTrace
 10
-150.6931297824706
 20
74.32837611620835
 30
0.0
 11
-150.0264631158039
 21
74.32837611620835
 31
0.0
 12
-150.3597964491373
 22
76.32837611620835
 32
0.0
 13
-150.3597964491373
 23
76.32837611620835
 33
0.0
  0
SOLID
  5
8D3
330
8A8
100
AcDbEntity
  8
寸法
 62
     0
370
    13
100
AcDbTrace
 10
-150.6931297824706
 20
22.32837611620834
 30
0.0
 11
-150.026463115804
 21
22.32837611620834
 31
0.0
 12
-150.3597964491373
 22
20.32837611620834
 32
0.0
 13
-150.3597964491373
 23
20.32837611620834
 33
0.0
  0
MTEXT
  5
8D4
330
8A8
100
AcDbEntity
  8
寸法
 62
     0
370
    13
100
AcDbMText
 10
-152.3597964491373
 20
48.32837611620832
 30
0.0
 40
2.5
 41
0.0
 71
     5
 72
     1
  1
56
 11
0.0000000000000001
 21
1.0
 31
0.0
 73
     1
 44
1.0
  0
POINT
  5
8D5
330
8A8
100
AcDbEntity
  8
Defpoints
 62
     0
370
    13
100
AcDbPoint
 10
-158.3597964491373
 20
76.32837611620835
 30
0.0
  0
POINT
  5
8D6
330
8A8
100
AcDbEntity
  8
Defpoints
 62
     0
370
    13
100
AcDbPoint
 10
-158.3597964491373
 20
20.32837611620834
 30
0.0
  0
POINT
  5
8D7
330
8A8
100
AcDbEntity
  8
Defpoints
 62
     0
370
    13
100
AcDbPoint
 10
-150.3597964491373
 20
20.32837611620834
 30
0.0
  0
ENDBLK
  5
8B3
330
8A8
100
AcDbEntity
  8
0
370
    13
100
AcDbBlockEnd
  0
ENDSEC
  0
SECTION
  2
ENTITIES
  0
DIMENSION
  5
515
330
A
100
AcDbEntity
  8
寸法
370
    13
100
AcDbDimension
  2
*D0
 10
-303.8227722357621
 20
15.85695318213002
 30
0.0
 11
-281.3227720599881
 21
17.85695318213002
 31
0.0
 70
    32
 71
     5
 42
45.0000003515479
  3
ISO-25 1／10
100
AcDbAlignedDimension
 13
-258.8227718842142
 23
20.85695318213014
 33
0.0
 14
-303.8227722357621
 24
20.85695318213014
 34
0.0
 50
180.0
100
AcDbRotatedDimension
1001
ACAD
1000
DSTYLE
1002
{
1070
   279
1070
     1
1002
}
  0
LINE
  5
5BC
330
A
100
AcDbEntity
  8
0
370
    13
100
AcDbLine
 10
-268.4221706616696
 20
20.85695318213014
 30
0.0
 11
-294.2221866868432
 21
20.85695318213014
 31
0.0
  0
LINE
  5
5BE
330
A
100
AcDbEntity
  8
0
370
    13
100
AcDbLine
 10
-286.8226666121583
 20
60.25697458808926
 30
0.0
 11
-289.8220336908143
 21
60.25697458808926
 31
0.0
  0
LINE
  5
5BF
330
A
100
AcDbEntity
  8
0
370
    13
100
AcDbLine
 10
-289.8220336908143
 20
23.6561514739489
 30
0.0
 11
-272.8223236576984
 21
23.6561514739489
 31
0.0
  0
LINE
  5
5C0
330
A
100
AcDbEntity
  8
0
370
    13
100
AcDbLine
 10
-289.9225136747208
 20
93.85695318213015
 30
0.0
 11
-286.8226666121583
 21
93.85695318213015
 31
0.0
  0
LINE
  5
5C1
330
A
100
AcDbEntity
  8
0
370
    13
100
AcDbLine
 10
-286.8226666121583
 20
90.85679492249848
 30
0.0
 11
-289.8220336908143
 21
90.85679492249848
 31
0.0
  0
LINE
  5
5C2
330
A
100
AcDbEntity
  8
0
370
    13
100
AcDbLine
 10
-289.8220336908143
 20
70.25750212019476
 30
0.0
 11
-286.8226666121583
 21
70.25750212019476
 31
0.0
  0
LINE
  5
5C5
330
A
100
AcDbEntity
  8
0
370
    13
100
AcDbLine
 10
-292.9222763438646
 20
33.81570638215834
 30
0.0
 11
-292.9222763438646
 21
90.85679492249886
 31
0.0
  0
LINE
  5
5C6
330
A
100
AcDbEntity
  8
0
370
    13
100
AcDbLine
 10
-289.8220336908143
 20
60.25697458808926
 30
0.0
 11
-289.8220336908143
 21
23.6561514739489
 31
0.0
  0
LINE
  5
5C7
330
A
100
AcDbEntity
  8
0
370
    13
100
AcDbLine
 10
-299.4226192397332
 20
20.85695318213014
 30
0.0
 11
-303.8227722357621
 21
20.85695318213014
 31
0.0
  0
SPLINE
  5
5C8
330
A
100
AcDbEntity
  8
0
370
    13
100
AcDbSpline
210
0.0
220
0.0
230
1.0
 70
     8
 71
     3
 72
     8
 73
     4
 74
     0
 42
0.0000000001
 43
0.0000000001
 40
0.0
 40
0.0
 40
0.0
 40
0.0
 40
1.0
 40
1.0
 40
1.0
 40
1.0
 10
-302.0054295347141
 20
23.85790262273747
 30
0.0
 10
-303.0351515745112
 20
23.7629609056605
 30
0.0
 10
-303.8227722357621
 20
22.9013648231872
 30
0.0
 10
-303.8227722357621
 20
21.86650010704837
 30
0.0
  0
LINE
  5
5CB
330
A
100
AcDbEntity
  8
0
370
    13
100
AcDbLine
 10
-303.8227722357621
 20
20.85695318213014
 30
0.0
 11
-303.8227722357621
 21
21.86650010704837
 31
0.0
  0
SPLINE
  5
5CC
330
A
100
AcDbEntity
  8
0
370
    13
100
AcDbSpline
210
0.0
220
0.0
230
1.0
 70
     8
 71
     3
 72
     8
 73
     4
 74
     0
 42
0.0000000001
 43
0.0000000001
 40
0.0
 40
0.0
 40
0.0
 40
0.0
 40
1.0
 40
1.0
 40
1.0
 40
1.0
 10
-302.0054295347141
 20
23.85790262273747
 30
0.0
 10
-296.8599840596311
 20
24.3318200271466
 30
0.0
 10
-292.9222763438646
 20
28.64929461122093
 30
0.0
 10
-292.9222763438646
 20
33.81570638215834
 30
0.0
  0
SPLINE
  5
5CD
330
A
100
AcDbEntity
  8
0
370
    13
100
AcDbSpline
210
0.0
220
0.0
230
1.0
 70
     8
 71
     3
 72
    11
 73
     7
 74
     0
 42
0.0000000001
 43
0.0000000001
 40
0.0
 40
0.0
 40
0.0
 40
0.0
 40
1.0
 40
1.0
 40
1.0
 40
2.0
 40
2.0
 40
2.0
 40
2.0
 10
-294.2221866868432
 20
20.85695318213014
 30
0.0
 10
-294.5536915156369
 20
22.29373783389467
 30
0.0
 10
-295.9865202625232
 20
23.18777233636932
 30
0.0
 10
-297.4225137333121
 20
22.85705868855127
 30
0.0
 10
-298.4162370387175
 20
22.62761620561531
 30
0.0
 10
-299.1931767567972
 20
21.85146766851122
 30
0.0
 10
-299.4226192397332
 20
20.85695318213014
 30
0.0
  0
SPLINE
  5
5CE
330
A
100
AcDbEntity
  8
0
370
    13
100
AcDbSpline
210
0.0
220
0.0
230
1.0
 70
     8
 71
     3
 72
     8
 73
     4
 74
     0
 42
0.0000000001
 43
0.0000000001
 40
0.0
 40
0.0
 40
0.0
 40
0.0
 40
1.0
 40
1.0
 40
1.0
 40
1.0
 10
-289.9225136747208
 20
93.85695318213016
 30
0.0
 10
-291.5792466377136
 20
93.85695318213016
 30
0.0
 10
-292.9222763438646
 20
92.51352788549128
 30
0.0
 10
-292.9222763438646
 20
90.8567949224985
 30
0.0
  0
LINE
  5
5D1
330
A
100
AcDbEntity
  8
0
370
    13
100
AcDbLine
 10
-289.8220336908143
 20
90.85679492249846
 30
0.0
 11
-289.8220336908143
 21
70.25750212019476
 31
0.0
  0
LINE
  5
5D2
330
A
100
AcDbEntity
  8
0
370
    13
100
AcDbLine
 10
-292.9222763438646
 20
65.00643398486372
 30
0.0
 11
-292.9222763438646
 21
65.506460361469
 31
0.0
  0
LINE
  5
5D4
330
A
100
AcDbEntity
  8
0
370
    13
100
AcDbLine
 10
-269.7224765951359
 20
90.85679492249886
 30
0.0
 11
-269.7224765951359
 21
33.81570638215834
 31
0.0
  0
LINE
  5
5DB
330
A
100
AcDbEntity
  8
0
370
    13
100
AcDbLine
 10
-272.8223236576984
 20
23.6561514739489
 30
0.0
 11
-272.8223236576984
 21
60.25697458808926
 31
0.0
  0
SPLINE
  5
5DC
330
A
100
AcDbEntity
  8
0
370
    13
100
AcDbSpline
210
0.0
220
0.0
230
1.0
 70
     8
 71
     3
 72
     8
 73
     4
 74
     0
 42
0.0000000001
 43
0.0000000001
 40
0.0
 40
0.0
 40
0.0
 40
0.0
 40
1.0
 40
1.0
 40
1.0
 40
1.0
 10
-269.7224765951359
 20
33.81570638215834
 30
0.0
 10
-269.7224765951359
 20
28.64929461122093
 30
0.0
 10
-265.7851644698572
 20
24.3318200271466
 30
0.0
 10
-260.6389278137986
 20
23.85790262273747
 30
0.0
  0
SPLINE
  5
5DD
330
A
100
AcDbEntity
  8
0
370
    13
100
AcDbSpline
210
0.0
220
0.0
230
1.0
 70
     8
 71
     3
 72
    11
 73
     7
 74
     0
 42
0.0000000001
 43
0.0000000001
 40
0.0
 40
0.0
 40
0.0
 40
0.0
 40
1.0
 40
1.0
 40
1.0
 40
2.0
 40
2.0
 40
2.0
 40
2.0
 10
-263.222924880243
 20
20.85695318213014
 30
0.0
 10
-263.5540341185488
 20
22.29373783389467
 30
0.0
 10
-264.9864672749474
 20
23.18777233636932
 30
0.0
 10
-266.422856336224
 20
22.85705868855127
 30
0.0
 10
-267.4169752321173
 20
22.62761620561531
 30
0.0
 10
-268.1931237692214
 20
21.85146766851122
 30
0.0
 10
-268.4221706616696
 20
20.85695318213014
 30
0.0
  0
LINE
  5
5DF
330
A
100
AcDbEntity
  8
0
370
    13
100
AcDbLine
 10
-258.8227718842142
 20
20.85695318213014
 30
0.0
 11
-263.222924880243
 21
20.85695318213014
 31
0.0
  0
SPLINE
  5
5E0
330
A
100
AcDbEntity
  8
0
370
    13
100
AcDbSpline
210
0.0
220
0.0
230
1.0
 70
     8
 71
     3
 72
     8
 73
     4
 74
     0
 42
0.0000000001
 43
0.0000000001
 40
0.0
 40
0.0
 40
0.0
 40
0.0
 40
1.0
 40
1.0
 40
1.0
 40
1.0
 10
-258.8227718842141
 20
21.86650010704837
 30
0.0
 10
-258.8227718842141
 20
22.9013648231872
 30
0.0
 10
-259.610392545465
 20
23.7629609056605
 30
0.0
 10
-260.6389278137986
 20
23.85790262273747
 30
0.0
  0
LINE
  5
5E1
330
A
100
AcDbEntity
  8
0
370
    13
100
AcDbLine
 10
-258.8227718842142
 20
21.86650010704837
 30
0.0
 11
-258.8227718842142
 21
20.85695318213014
 31
0.0
  0
SPLINE
  5
5E2
330
A
100
AcDbEntity
  8
0
370
    13
100
AcDbSpline
210
0.0
220
0.0
230
1.0
 70
     8
 71
     3
 72
     8
 73
     4
 74
     0
 42
0.0000000001
 43
0.0000000001
 40
0.0
 40
0.0
 40
0.0
 40
0.0
 40
1.0
 40
1.0
 40
1.0
 40
1.0
 10
-269.7224765951359
 20
90.8567949224985
 30
0.0
 10
-269.7224765951359
 20
92.51352788549128
 30
0.0
 10
-271.0659018917748
 20
93.85695318213016
 30
0.0
 10
-272.7226348547676
 20
93.85695318213016
 30
0.0
  0
LINE
  5
5E3
330
A
100
AcDbEntity
  8
0
370
    13
100
AcDbLine
 10
-286.8226666121583
 20
93.85695318213015
 30
0.0
 11
-286.8226666121583
 21
90.85679492249848
 31
0.0
  0
LINE
  5
5E4
330
A
100
AcDbEntity
  8
0
370
    13
100
AcDbLine
 10
-275.82248191733
 20
90.85679492249848
 30
0.0
 11
-275.82248191733
 21
93.85695318213015
 31
0.0
  0
LINE
  5
5E5
330
A
100
AcDbEntity
  8
0
370
    13
100
AcDbLine
 10
-272.8223236576984
 20
70.25750212019476
 30
0.0
 11
-272.8223236576984
 21
90.85679492249846
 31
0.0
  0
LINE
  5
5E6
330
A
100
AcDbEntity
  8
0
370
    13
100
AcDbLine
 10
-286.8226666121583
 20
70.25750212019476
 30
0.0
 11
-286.8226666121583
 21
60.25697458808926
 31
0.0
  0
LINE
  5
5E7
330
A
100
AcDbEntity
  8
0
370
    13
100
AcDbLine
 10
-275.82248191733
 20
60.25697458808926
 30
0.0
 11
-275.82248191733
 21
70.25750212019476
 31
0.0
  0
LINE
  5
5E8
330
A
100
AcDbEntity
  8
0
370
    13
100
AcDbLine
 10
-272.8223236576984
 20
60.25697458808926
 30
0.0
 11
-275.82248191733
 21
60.25697458808926
 31
0.0
  0
LINE
  5
5E9
330
A
100
AcDbEntity
  8
0
370
    13
100
AcDbLine
 10
-275.82248191733
 20
70.25750212019476
 30
0.0
 11
-272.8223236576984
 21
70.25750212019476
 31
0.0
  0
LINE
  5
5EA
330
A
100
AcDbEntity
  8
0
370
    13
100
AcDbLine
 10
-272.8223236576984
 20
90.85679492249848
 30
0.0
 11
-275.82248191733
 21
90.85679492249848
 31
0.0
  0
LINE
  5
5EC
330
A
100
AcDbEntity
  8
0
370
    13
100
AcDbLine
 10
-269.7224765951359
 20
65.506460361469
 30
0.0
 11
-269.7224765951359
 21
65.00643398486372
 31
0.0
  0
LINE
  5
5ED
330
A
100
AcDbEntity
  8
0
370
    13
100
AcDbLine
 10
-275.82248191733
 20
93.85695318213015
 30
0.0
 11
-272.7226348547676
 21
93.85695318213015
 31
0.0
  0
DIMENSION
  5
697
330
A
100
AcDbEntity
  8
寸法
370
    13
100
AcDbDimension
  2
*D1
 10
-308.8227722357621
 20
20.85695318213014
 30
0.0
 11
-310.8227722357621
 21
57.35695318213009
 31
0.0
 70
    32
 71
     5
 42
73.0
  3
ISO-25 1／10
100
AcDbAlignedDimension
 13
-289.1283219933166
 23
93.85695318213015
 33
0.0
 14
-303.8227722357621
 24
20.85695318213014
 34
0.0
 50
270.0
100
AcDbRotatedDimension
1001
ACAD
1000
DSTYLE
1002
{
1070
   279
1070
     1
1002
}
  0
ARC
  5
73C
330
A
100
AcDbEntity
  8
0
370
    13
100
AcDbCircle
 10
-281.300301519746
 20
182.1554367652777
 30
0.0
 40
25.0
100
AcDbArc
 50
284.1227445475643
 51
255.8772554524356
  0
ARC
  5
73D
330
A
100
AcDbEntity
  8
0
370
    13
100
AcDbCircle
 10
-281.300301519746
 20
182.1554367652777
 30
0.0
 40
23.0
100
AcDbArc
 50
290.62033912515
 51
249.3796608748499
  0
LINE
  5
74C
330
A
100
AcDbEntity
  8
0
370
    13
100
AcDbLine
 10
-289.400301519746
 20
180.1554367652777
 30
0.0
 11
-273.200301519746
 21
180.1554367652777
 31
0.0
  0
LINE
  5
74D
330
A
100
AcDbEntity
  8
0
370
    13
100
AcDbLine
 10
-287.400301519746
 20
178.1554367652776
 30
0.0
 11
-275.200301519746
 21
178.1554367652776
 31
0.0
  0
LINE
  5
750
330
A
100
AcDbEntity
  8
0
370
    13
100
AcDbLine
 10
-289.400301519746
 20
180.1554367652777
 30
0.0
 11
-289.400301519746
 21
160.6289414629764
 31
0.0
  0
LINE
  5
751
330
A
100
AcDbEntity
  8
0
370
    13
100
AcDbLine
 10
-273.200301519746
 20
180.1554367652777
 30
0.0
 11
-273.200301519746
 21
160.6289414629764
 31
0.0
  0
LINE
  5
752
330
A
100
AcDbEntity
  8
0
370
    13
100
AcDbLine
 10
-275.200301519746
 20
178.1554367652777
 30
0.0
 11
-275.200301519746
 21
157.9110559730199
 31
0.0
  0
LINE
  5
753
330
A
100
AcDbEntity
  8
0
370
    13
100
AcDbLine
 10
-287.400301519746
 20
178.1554367652777
 30
0.0
 11
-287.400301519746
 21
157.9110559730199
 31
0.0
  0
DIMENSION
  5
792
330
A
100
AcDbEntity
  8
寸法
370
    13
100
AcDbDimension
  2
*D2
 10
-306.300301519746
 20
212.1554367652777
 30
0.0
 11
-281.300301519746
 21
214.1554367652777
 31
0.0
 70
    32
 71
     5
 42
50.0
  3
ISO-25 1／10
100
AcDbAlignedDimension
 13
-256.300301519746
 23
182.1554367652777
 33
0.0
 14
-306.300301519746
 24
182.1554367652777
 34
0.0
 50
180.0
100
AcDbRotatedDimension
1001
ACAD
1000
DSTYLE
1002
{
1070
   279
1070
     1
1002
}
  0
DIMENSION
  5
7C3
330
A
100
AcDbEntity
  8
寸法
370
    13
100
AcDbDimension
  2
*D3
 10
-190.3597964491373
 20
7.328376116208348
 30
0.0
 11
-192.3597964491373
 21
48.32837611620831
 31
0.0
 70
    32
 71
     5
 42
82.0
  3
ISO-25 1／10
100
AcDbAlignedDimension
 13
-185.3597964491373
 23
89.32837611620835
 33
0.0
 14
-185.3597964491373
 24
7.328376116208346
 34
0.0
 50
270.0
100
AcDbRotatedDimension
1001
ACAD
1000
DSTYLE
1002
{
1070
   279
1070
     1
1002
}
  0
LWPOLYLINE
  5
7ED
330
A
100
AcDbEntity
  8
0
370
    13
100
AcDbPolyline
 90
        6
 70
     1
 43
0.0
 10
-185.3597964491373
 20
7.328376116208346
 10
-180.3597964491373
 20
7.328376116208346
 42
0.4142135623730951
 10
-179.3597964491373
 20
8.328376116208346
 10
-179.3597964491373
 20
88.32837611620833
 42
0.4142135623730951
 10
-180.3597964491373
 20
89.32837611620833
 10
-185.3597964491373
 20
89.32837611620835
  0
LINE
  5
83D
330
A
100
AcDbEntity
  8
0
370
    13
100
AcDbLine
 10
-178.3597964491373
 20
20.32837611620834
 30
0.0
 11
-158.3597964491373
 21
20.32837611620834
 31
0.0
  0
ARC
  5
83E
330
A
100
AcDbEntity
  8
0
370
    13
100
AcDbCircle
 10
-158.3597964491373
 20
23.32837611620834
 30
0.0
 40
3.0
100
AcDbArc
 50
270.0
 51
0.0
  0
LINE
  5
83F
330
A
100
AcDbEntity
  8
0
370
    13
100
AcDbLine
 10
-155.3597964491373
 20
23.32837611620834
 30
0.0
 11
-155.3597964491373
 21
73.32837611620835
 31
0.0
  0
ARC
  5
840
330
A
100
AcDbEntity
  8
0
370
    13
100
AcDbCircle
 10
-158.3597964491373
 20
73.32837611620835
 30
0.0
 40
3.0
100
AcDbArc
 50
0.0
 51
90.0
  0
LINE
  5
841
330
A
100
AcDbEntity
  8
0
370
    13
100
AcDbLine
 10
-158.3597964491373
 20
76.32837611620835
 30
0.0
 11
-178.3597964491373
 21
76.32837611620835
 31
0.0
  0
ARC
  5
843
330
A
100
AcDbEntity
  8
0
370
    13
100
AcDbCircle
 10
-178.3597964491373
 20
77.32837611620834
 30
0.0
 40
1.0
100
AcDbArc
 50
180.0
 51
270.0
  0
ARC
  5
844
330
A
100
AcDbEntity
  8
0
370
    13
100
AcDbCircle
 10
-178.3597964491373
 20
19.32837611620834
 30
0.0
 40
1.0
100
AcDbArc
 50
90.00000000000003
 51
180.0
  0
DIMENSION
  5
860
330
A
100
AcDbEntity
  8
寸法
370
    13
100
AcDbDimension
  2
*D4
 10
-185.3597964491373
 20
94.32837611620838
 30
0.0
 11
-182.3597964491373
 21
96.32837611620837
 31
0.0
 70
    32
 71
     5
 42
6.0
  3
ISO-25 1／10
100
AcDbAlignedDimension
 13
-179.3597964491373
 23
88.32837611620833
 33
0.0
 14
-185.3597964491373
 24
89.32837611620835
 34
0.0
 50
180.0
100
AcDbRotatedDimension
1001
ACAD
1000
DSTYLE
1002
{
1070
   279
1070
     1
1002
}
  0
DIMENSION
  5
888
330
A
100
AcDbEntity
  8
寸法
370
    13
100
AcDbDimension
  2
*D5
 10
-155.3597964491373
 20
94.32837611620838
 30
0.0
 11
-167.3597964491373
 21
96.32837611620837
 31
0.0
 70
    32
 71
     5
 42
24.0
  3
ISO-25 1／10
100
AcDbAlignedDimension
 13
-179.3597964491373
 23
88.32837611620833
 33
0.0
 14
-155.3597964491373
 24
73.32837611620835
 34
0.0
 50
0.000000000000007
100
AcDbRotatedDimension
1001
ACAD
1000
DSTYLE
1002
{
1070
   279
1070
     1
1002
}
  0
DIMENSION
  5
8A7
330
A
100
AcDbEntity
  8
寸法
370
    13
100
AcDbDimension
  2
*D6
 10
-150.3597964491373
 20
20.32837611620834
 30
0.0
 11
-152.3597964491373
 21
48.32837611620832
 31
0.0
 70
    32
 71
     5
 42
56.00000000000001
  3
ISO-25 1／10
100
AcDbAlignedDimension
 13
-158.3597964491373
 23
76.32837611620835
 33
0.0
 14
-158.3597964491373
 24
20.32837611620834
 34
0.0
 50
270.0
100
AcDbRotatedDimension
1001
ACAD
1000
DSTYLE
1002
{
1070
   279
1070
     1
1002
}
  0
MTEXT
  5
8F3
330
A
100
AcDbEntity
  8
文字
370
    13
100
AcDbMText
 10
-279.3225101726557
 20
141.0558472480849
 30
0.0
 40
5.0
 41
0.0
 71
     5
 72
     1
  1
{\fMS UI Gothic|b0|i0|c128|p17;50\fMS UI Gothic|b0|i0|c0|p17;21.25}
 73
     1
 44
1.0
  0
MTEXT
  5
8F7
330
A
100
AcDbEntity
  8
文字
370
    13
100
AcDbMText
 10
-279.1561455379341
 20
-2.170288607236443
 30
0.0
 40
5.0
 41
0.0
 71
     5
 72
     1
  1
{\fMS UI Gothic|b0|i0|c128|p17;50\fMS UI Gothic|b0|i0|c0|p17;2\fMS UI Gothic|b0|i0|c128|p17;0\fMS UI Gothic|b0|i0|c0|p17;.25}
 73
     1
 44
1.0
  0
MTEXT
  5
8F8
330
A
100
AcDbEntity
  8
文字
370
    13
100
AcDbMText
 10
-168.8965789967587
 20
-9.220920707926097
 30
0.0
 40
5.0
 41
0.0
 71
     5
 72
     1
  1
{\fMS UI Gothic|b0|i0|c128|p17;5070\fMS UI Gothic|b0|i0|c0|p17;.25\P\fMS UI Gothic|b0|i0|c128|p17;2071.25}
 73
     1
 44
1.0
  0
ENDSEC
  0
SECTION
  2
OBJECTS
  0
DICTIONARY
  5
19
330
0
100
AcDbDictionary
281
     1
  3
ACAD_GROUP
350
1A
  3
ACAD_IMAGE_VARS
350
19A
  3
ACAD_LAYOUT
350
1E
  3
ACAD_MLINESTYLE
350
1B
  3
ACAD_PLOTSETTINGS
350
22
  3
ACAD_PLOTSTYLENAME
350
1F
  3
ACAD_WIPEOUT_VARS
350
23
  0
DICTIONARY
  5
2C8
330
2
100
AcDbDictionary
280
     1
281
     1
  3
ACAD_LAYERFILTERS
360
2C9
  0
DICTIONARY
  5
1A
102
{ACAD_REACTORS
330
19
102
}
330
19
100
AcDbDictionary
281
     1
  0
RASTERVARIABLES
  5
19A
102
{ACAD_REACTORS
330
19
102
}
330
19
100
AcDbRasterVariables
 90
        0
 70
     1
 71
     1
 72
     0
  0
DICTIONARY
  5
1E
102
{ACAD_REACTORS
330
19
102
}
330
19
100
AcDbDictionary
281
     1
  3
Layout1
350
21
  3
Model
350
20
  0
DICTIONARY
  5
1B
102
{ACAD_REACTORS
330
19
102
}
330
19
100
AcDbDictionary
281
     1
  3
Standard
350
1C
  0
DICTIONARY
  5
22
102
{ACAD_REACTORS
330
19
102
}
330
19
100
AcDbDictionary
281
     1
  0
ACDBDICTIONARYWDFLT
  5
1F
102
{ACAD_REACTORS
330
19
102
}
330
19
100
AcDbDictionary
281
     1
  3
Normal
350
1D
100
AcDbDictionaryWithDefault
340
1D
  0
ACAD_PROXY_OBJECT
  5
23
330
19
100
AcDbProxyObject
 90
      499
 91
      521
 95
   393239
 70
     0
 93
       10
310
4040
 94
        0
  0
DICTIONARY
  5
2C9
102
{ACAD_REACTORS
330
2C8
102
}
330
2C8
100
AcDbDictionary
280
     1
281
     1
  3
-100
360
2CA
  3
-50
360
2CB
  3
-ben
360
2CC
  3
-H
360
2CD
  3
-T
360
2CE
  3
$
360
2CF
  3
$0$
360
2D0
  3
0
360
2D1
  3
0-
360
2D2
  3
00
360
2D3
  3
01
360
2D4
  3
01KUTAI
360
2D5
  3
01全体計画平面図
360
2D6
  3
02現況平面図
360
2D7
  3
03撤去平面図
360
2D8
  3
04造成平面図
360
2D9
  3
05
360
2DA
  3
05施設平面図
360
2DB
  3
06
360
2DC
  3
06siki
360
2DD
  3
06siki2
360
2DE
  3
06排水平面図
360
2DF
  3
07
360
2E0
  3
07給水平面図
360
2E1
  3
0割付平面図
360
2E2
  3
0潅水平面
360
2E3
  3
0計画平面
360
2E4
  3
0高木植栽
360
2E5
  3
0施設平面
360
2E6
  3
0床内
360
2E7
  3
0床壁
360
2E8
  3
0照明配置図
360
2E9
  3
0詳細図
360
2EA
  3
0植栽基盤
360
2EB
  3
0全体工区区分図
360
2EC
  3
0総合図off
360
2ED
  3
0総合図枠
360
2EE
  3
0低木
360
2EF
  3
0排水平面
360
2F0
  3
0平詳枠
360
2F1
  3
0擁壁平面図
360
2F2
  3
1
360
2F3
  3
10
360
2F4
  3
100
360
2F5
  3
10植栽平面図
360
2F6
  3
11
360
2F7
  3
1111
360
2F8
  3
11寸法図
360
2F9
  3
12
360
2FA
  3
19
360
2FB
  3
１Ｆ床伏OFF
360
2FC
  3
1階
360
2FD
  3
1床
360
2FE
  3
1芯
360
2FF
  3
1芯線
360
300
  3
20
360
301
  3
21
360
302
  3
250
360
303
  3
2fmiage
360
304
  3
2躯体
360
305
  3
2断面
360
306
  3
2壁
360
307
  3
300
360
308
  3
32
360
309
  3
333
360
30A
  3
37
360
30B
  3
3D
360
30C
  3
3開口
360
30D
  3
3見掛り
360
30E
  3
3天井内
360
30F
  3
41
360
310
  3
4仕上げ
360
311
  3
4天井
360
312
  3
5
360
313
  3
50
360
314
  3
50off
360
315
  3
51-52
360
316
  3
555
360
317
  3
5寸法
360
318
  3
5文字
360
319
  3
6
360
31A
  3
66-躯体図
360
31B
  3
66躯体図
360
31C
  3
6記号
360
31D
  3
6文字
360
31E
  3
6保留
360
31F
  3
767
360
320
  3
767SE13-0...$
360
321
  3
767SE13-07-99$0$
360
322
  3
7記号
360
323
  3
8
360
324
  3
8寸法
360
325
  3
8設備
360
326
  3
9文字
360
327
  3
9目地
360
328
  3
A
360
329
  3
A-
360
32A
  3
A(枠･表)を表示
360
32B
  3
A01
360
32C
  3
A1.DEMO-KEY NOTE
360
32D
  3
A2. CONS-KEY NOTE
360
32E
  3
A21
360
32F
  3
A3
360
330
  3
A3. RCP-LAYER
360
331
  3
A3D. RCP_DEMO-KEY NOTE
360
332
  3
A4. P&T- KEY NOTE
360
333
  3
A4D. EL_DEMO-KEY NOTE
360
334
  3
A5. FINISH-KEY NOTE
360
335
  3
A6. FURN-KEY NOTE
360
336
  3
aa
360
337
  3
aaa
360
338
  3
AB棟
360
339
  3
ＡＢ棟
360
33A
  3
ACTIVE
360
33B
  3
ACTIVE2
360
33C
  3
ALC
360
33D
  3
ALL
360
33E
  3
all選択
360
33F
  3
AMENAGEMENT
360
340
  3
AQ
360
341
  3
ARBOL
360
342
  3
AREA
360
343
  3
AREA-SG
360
344
  3
AS1
360
345
  3
aハッチング
360
346
  3
A空調
360
347
  3
B
360
348
  3
B(基準)を表示
360
349
  3
B2
360
34A
  3
B3
360
34B
  3
BAL
360
34C
  3
baru
360
34D
  3
baru2
360
34E
  3
BASE
360
34F
  3
bb
360
350
  3
bbbb
360
351
  3
beam
360
352
  3
blocchi
360
353
  3
blue
360
354
  3
BSM
360
355
  3
b階段
360
356
  3
B電気
360
357
  3
c
360
358
  3
c-block
360
359
  3
c-block-2
360
35A
  3
C(寸･文･記)を表示
360
35B
  3
cajetin
360
35C
  3
cc
360
35D
  3
CD06
360
35E
  3
ＣＤ棟
360
35F
  3
ceiling
360
360
  3
CEILINGS XREF
360
361
  3
CEL
360
362
  3
che
360
363
  3
chika
360
364
  3
CLG
360
365
  3
COL
360
366
  3
cold beam
360
367
  3
colu
360
368
  3
com
360
369
  3
con
360
36A
  3
CRG
360
36B
  3
cyan
360
36C
  3
C衛生
360
36D
  3
C街区関連
360
36E
  3
c雑金物
360
36F
  3
C打計画図
360
370
  3
D
360
371
  3
D(表現補助)を表示
360
372
  3
Ｄ・墓地　施設平面
360
373
  3
D16
360
374
  3
DASHED
360
375
  3
DASHED2
360
376
  3
DEMO
360
377
  3
DEMOLITION
360
378
  3
detail
360
379
  3
details
360
37A
  3
DHED
360
37B
  3
Dim
360
37C
  3
disegno
360
37D
  3
DOORS
360
37E
  3
DR
360
37F
  3
DT
360
380
  3
d外構
360
381
  3
Ｄ街区低木
360
382
  3
D割付平面
360
383
  3
Ｄ給水設備
360
384
  3
Ｄ計画高平面
360
385
  3
Ｄ計画平面
360
386
  3
Ｄ工事区分
360
387
  3
Ｄ高木植栽
360
388
  3
Ｄ施設平面
360
389
  3
Ｄ照明設備
360
38A
  3
Ｄ低木
360
38B
  3
Ｄ電気設備
360
38C
  3
Ｄ土壌改良
360
38D
  3
Ｄ排水平面
360
38E
  3
D舗装平面
360
38F
  3
Ｄ墓地施設平面
360
390
  3
D墓地排水
360
391
  3
E
360
392
  3
E(点線系)を表示
360
393
  3
EEEE
360
394
  3
EISEI
360
395
  3
elec
360
396
  3
ERAS1F
360
397
  3
existing
360
398
  3
Exit
360
399
  3
F
360
39A
  3
F(断面)を表示
360
39B
  3
F1
360
39C
  3
face4
360
39D
  3
FC_CLADDING
360
39E
  3
FENCE
360
39F
  3
FF
360
3A0
  3
FH
360
3A1
  3
FILTER1
360
3A2
  3
fini
360
3A3
  3
finish
360
3A4
  3
FIRE
360
3A5
  3
fixture
360
3A6
  3
fl
360
3A7
  3
Floor
360
3A8
  3
FLOOR PLAN
360
3A9
  3
fr
360
3AA
  3
freeze
360
3AB
  3
FRZ
360
3AC
  3
Fugou
360
3AD
  3
FUGOU-TATEGU
360
3AE
  3
FUKI
360
3AF
  3
FURN
360
3B0
  3
FURNITURE
360
3B1
  3
FUSE_00
360
3B2
  3
G
360
3B3
  3
G(開口)を表示
360
3B4
  3
GAIKOU
360
3B5
  3
gel
360
3B6
  3
gen
360
3B7
  3
gondora
360
3B8
  3
green
360
3B9
  3
GRID
360
3BA
  3
gris
360
3BB
  3
H
360
3BC
  3
H-
360
3BD
  3
H-SIN
360
3BE
  3
H(見掛)を表示
360
3BF
  3
HA
360
3C0
  3
haikin
360
3C1
  3
HAISEN
360
3C2
  3
HARI
360
3C3
  3
hasira
360
3C4
  3
HATCH
360
3C5
  3
HCP
360
3C6
  3
HEISHO
360
3C7
  3
HEISHO2
360
3C8
  3
HIDDEN
360
3C9
  3
HOJO
360
3CA
  3
hollywood
360
3CB
  3
HOTEL
360
3CC
  3
huse
360
3CD
  3
HYOKI
360
3CE
  3
HYOUKI
360
3CF
  3
i
360
3D0
  3
I(二次部材系))を表示
360
3D1
  3
I2
360
3D2
  3
i2cl
360
3D3
  3
i5
360
3D4
  3
i9
360
3D5
  3
in
360
3D6
  3
INSERT図
360
3D7
  3
ISSUE
360
3D8
  3
J
360
3D9
  3
K
360
3DA
  3
KABE
360
3DB
  3
KABESHIN
360
3DC
  3
KAGU
360
3DD
  3
key
360
3DE
  3
KI
360
3DF
  3
KIGO
360
3E0
  3
KIJUN
360
3E1
  3
kiso
360
3E2
  3
KSIN
360
3E3
  3
kui
360
3E4
  3
KUTAI
360
3E5
  3
L
360
3E6
  3
LEGEND
360
3E7
  3
LGS
360
3E8
  3
light
360
3E9
  3
LIST
360
3EA
  3
lixo
360
3EB
  3
LOCK
360
3EC
  3
LTA
360
3ED
  3
Ｌ建具
360
3EE
  3
M
360
3EF
  3
MA
360
3F0
  3
MACONNERIE
360
3F1
  3
magenta
360
3F2
  3
magenta-bleu
360
3F3
  3
maji
360
3F4
  3
MAJIKIRI
360
3F5
  3
marco
360
3F6
  3
MB
360
3F7
  3
meji
360
3F8
  3
merceologico
360
3F9
  3
MILL
360
3FA
  3
MILLWORK
360
3FB
  3
miwa
360
3FC
  3
MOJI
360
3FD
  3
MOJI100
360
3FE
  3
N
360
3FF
  3
N-
360
400
  3
NAM
360
401
  3
NEW
360
402
  3
NHK
360
403
  3
no xref
360
404
  3
note
360
405
  3
NUM
360
406
  3
NUMB
360
407
  3
O
360
408
  3
OF
360
409
  3
OFF
360
40A
  3
on
360
40B
  3
option 1
360
40C
  3
option 2
360
40D
  3
OUTLINE
360
40E
  3
P
360
40F
  3
pa
360
410
  3
PALFOND
360
411
  3
PAT
360
412
  3
PC
360
413
  3
PISO
360
414
  3
PLAN
360
415
  3
PLMB
360
416
  3
plot
360
417
  3
PLUMB
360
418
  3
PNL
360
419
  3
power
360
41A
  3
PRT
360
41B
  3
q
360
41C
  3
R
360
41D
  3
rack
360
41E
  3
RC
360
41F
  3
RCP
360
420
  3
rm
360
421
  3
RMTAGS
360
422
  3
RNUM
360
423
  3
ROOM
360
424
  3
roomno
360
425
  3
rouge
360
426
  3
rtkl
360
427
  3
S
360
428
  3
saciencewold
360
429
  3
SETUBI
360
42A
  3
SHITU
360
42B
  3
SHITUMEI
360
42C
  3
SIAG
360
42D
  3
SIAG-N
360
42E
  3
SIAG3
360
42F
  3
sin
360
430
  3
Sinm
360
431
  3
SITA
360
432
  3
siyah
360
433
  3
SS
360
434
  3
ST
360
435
  3
STA
360
436
  3
stairs
360
437
  3
SUGA5
360
438
  3
SUNP
360
439
  3
SUNP100
360
43A
  3
T
360
43B
  3
TAKASA
360
43C
  3
TATE161
360
43D
  3
TATEGU
360
43E
  3
ten
360
43F
  3
TENJYOU
360
440
  3
TENJYOUNAI
360
441
  3
test
360
442
  3
text
360
443
  3
thaw
360
444
  3
TITL
360
445
  3
tnjyou
360
446
  3
tori
360
447
  3
TORISHIN
360
448
  3
tr
360
449
  3
TSIN
360
44A
  3
TXT
360
44B
  3
UNFREEZ
360
44C
  3
UNROCK
360
44D
  3
wada
360
44E
  3
waku
360
44F
  3
X
360
450
  3
X(敷地)を表示
360
451
  3
xref
360
452
  3
YAJI
360
453
  3
yellow
360
454
  3
YUKA
360
455
  3
yその他
360
456
  3
Z
360
457
  3
ZATU
360
458
  3
z図枠
360
459
  3
к
360
45A
  3
перегородки
360
45B
  3
イベント給水
360
45C
  3
ガラス
360
45D
  3
キ-プラン
360
45E
  3
キープラン
360
45F
  3
さーくる
360
460
  3
シェルター
360
461
  3
すべてに反映
360
462
  3
スロープ
360
463
  3
タイル割付平面図
360
464
  3
ﾃｷｽﾄのみ表示
360
465
  3
ハッチング
360
466
  3
フリーズ
360
467
  3
フリーズof
360
468
  3
ﾌﾘｰｽﾞ画層非表示
360
469
  3
ﾌﾘｰｽﾞ画面非表示
360
46A
  3
ﾌﾘｰｽﾞ解除
360
46B
  3
フリーズ解除
360
46C
  3
ﾌﾟﾚｾﾞﾝ枠
360
46D
  3
マーク
360
46E
  3
ﾒｲﾝﾌﾟﾗｻﾞ
360
46F
  3
レベル
360
470
  3
ロック
360
471
  3
一括非表示
360
472
  3
一般図
360
473
  3
印刷
360
474
  3
荏原機器
360
475
  3
荏原機器基礎
360
476
  3
衛生設備図
360
477
  3
黄色
360
478
  3
下階
360
479
  3
下地
360
47A
  3
外構
360
47B
  3
外部参照－建築
360
47C
  3
外部参照除く
360
47D
  3
割り付け平面図
360
47E
  3
割付平面図
360
47F
  3
潅水平面
360
480
  3
基
360
481
  3
基準
360
482
  3
基準階
360
483
  3
基礎OFF
360
484
  3
基礎伏
360
485
  3
基礎伏図
360
486
  3
基盤改良平面図
360
487
  3
既存杭
360
488
  3
機器
360
489
  3
機器基礎
360
48A
  3
記号
360
48B
  3
給水設備平面図
360
48C
  3
給水平面
360
48D
  3
区画
360
48E
  3
躯体
360
48F
  3
躯体図
360
490
  3
空調jv
360
491
  3
空調設備図
360
492
  3
郡川
360
493
  3
型枠計画図
360
494
  3
計画高平面図
360
495
  3
計画平面
360
496
  3
計画平面図
360
497
  3
劇場ﾌﾟﾗｻﾞ
360
498
  3
劇場棟
360
499
  3
建具
360
49A
  3
建築接地図
360
49B
  3
見上げ
360
49C
  3
現在非表示画層
360
49D
  3
光天井
360
49E
  3
公園
360
49F
  3
工事区分図
360
4A0
  3
工事区分図AB
360
4A1
  3
工事区分図CD
360
4A2
  3
高さ
360
4A3
  3
高木植栽平面
360
4A4
  3
高木平面図
360
4A5
  3
座席のみ
360
4A6
  3
作業
360
4A7
  3
参考
360
4A8
  3
山止根切計画図
360
4A9
  3
仕
360
4AA
  3
仕上
360
4AB
  3
仕上図
360
4AC
  3
使用中
360
4AD
  3
施設配置図
360
4AE
  3
施設平面
360
4AF
  3
施設平面図
360
4B0
  3
紫
360
4B1
  3
床伏図
360
4B2
  3
昇降機
360
4B3
  3
照明
360
4B4
  3
照明Ｃ１
360
4B5
  3
照明Ｃ２
360
4B6
  3
照明配置図
360
4B7
  3
詳細
360
4B8
  3
詳細図
360
4B9
  3
上階躯体図
360
4BA
  3
植栽
360
4BB
  3
植栽基盤平面
360
4BC
  3
植栽現況
360
4BD
  3
植栽高木AB
360
4BE
  3
植栽高木CD
360
4BF
  3
植栽低木AB
360
4C0
  3
植栽低木ＣＤ
360
4C1
  3
色番号8
360
4C2
  3
申請用
360
4C3
  3
芯
360
4C4
  3
芯関係
360
4C5
  3
水
360
4C6
  3
水色
360
4C7
  3
寸法
360
4C8
  3
製作
360
4C9
  3
製作-躯体
360
4CA
  3
製作-建築
360
4CB
  3
製作-昇降機
360
4CC
  3
青
360
4CD
  3
設備
360
4CE
  3
設備プロット
360
4CF
  3
全階平面図
360
4D0
  3
総合仮設図
360
4D1
  3
総合図
360
4D2
  3
足場計画図
360
4D3
  3
地下埋設
360
4D4
  3
中野
360
4D5
  3
低木植栽平面
360
4D6
  3
低木平面図
360
4D7
  3
鉄骨
360
4D8
  3
鉄骨建方計画図
360
4D9
  3
天井インサート図
360
4DA
  3
天井総合図
360
4DB
  3
天井伏図
360
4DC
  3
天伏
360
4DD
  3
電気設備図
360
4DE
  3
土壌改良
360
4DF
  3
土木計画平面図
360
4E0
  3
道路
360
4E1
  3
道路関係図
360
4E2
  3
排水
360
4E3
  3
排水設備平面図
360
4E4
  3
排水平面
360
4E5
  3
配管
360
4E6
  3
非表示
360
4E7
  3
非表示ﾚｲﾔｰ
360
4E8
  3
表示
360
4E9
  3
表示・非表示
360
4EA
  3
表示2
360
4EB
  3
分割枠
360
4EC
  3
平面詳細図
360
4ED
  3
平面図
360
4EE
  3
平面総合図
360
4EF
  3
変更分
360
4F0
  3
舗装平面
360
4F1
  3
舗装平面C1
360
4F2
  3
舗装平面C2
360
4F3
  3
舗装平面図
360
4F4
  3
法規チェック－区画
360
4F5
  3
法規チェック－範囲
360
4F6
  3
鳳文字入力
360
4F7
  3
防災
360
4F8
  3
名称
360
4F9
  3
面積
360
4FA
  3
擁壁平面図
360
4FB
  3
用途色塗
360
4FC
  3
立面図
360
4FD
  3
梁
360
4FE
  3
緑
360
4FF
  0
LAYOUT
  5
21
102
{ACAD_REACTORS
330
1E
102
}
330
1E
100
AcDbPlotSettings
  1

  2

  4

  6

 40
0.0
 41
0.0
 42
0.0
 43
0.0
 44
0.0
 45
0.0
 46
0.0
 47
0.0
 48
0.0
 49
0.0
140
0.0
141
0.0
142
1.0
143
1.0
 70
     0
 72
     0
 73
     0
 74
     0
  7
monochrome.ctb
 75
     0
147
1.0
148
0.0
149
0.0
100
AcDbLayout
  1
Layout1
 70
     0
 71
     1
 10
0.0
 20
0.0
 11
12.0
 21
9.0
 12
0.0
 22
0.0
 32
0.0
 14
1.000000000000000E+20
 24
1.000000000000000E+20
 34
1.000000000000000E+20
 15
-1.000000000000000E+20
 25
-1.000000000000000E+20
 35
-1.000000000000000E+20
146
0.0
 13
0.0
 23
0.0
 33
0.0
 16
1.0
 26
0.0
 36
0.0
 17
0.0
 27
1.0
 37
0.0
 76
     0
330
B
  0
LAYOUT
  5
20
102
{ACAD_REACTORS
330
1E
102
}
330
1E
100
AcDbPlotSettings
  1

  2
Adobe PDF（横方向）.pc3
  4
A4
  6

 40
3.174999952316284
 41
3.174999952316284
 42
3.17498779296875
 43
3.175003051757812
 44
297.0318298339843
 45
209.9733276367187
 46
0.0
 47
34.68999999999999
 48
-427.7458015042873
 49
-45.20368064140427
140
-51.86066746371853
141
239.5231201540177
142
1.0
143
2.534066686169707
 70
 11444
 72
     1
 73
     0
 74
     0
  7
monochrome.ctb
 75
     0
147
0.3946226062075422
148
595.5374139616144
149
74.51379247627426
100
AcDbLayout
  1
Model
 70
     0
 71
     0
 10
0.0
 20
0.0
 11
0.0
 21
0.0
 12
0.0
 22
0.0
 32
0.0
 14
0.0
 24
0.0
 34
0.0
 15
0.0
 25
0.0
 35
0.0
146
0.0
 13
0.0
 23
0.0
 33
0.0
 16
0.0
 26
0.0
 36
0.0
 17
0.0
 27
0.0
 37
0.0
 76
     0
330
A
  0
MLINESTYLE
  5
1C
102
{ACAD_REACTORS
330
1B
102
}
330
1B
100
AcDbMlineStyle
  2
STANDARD
 70
     0
  3

 62
     0
 51
90.0
 52
90.0
 71
     2
 49
0.5
 62
   256
  6
BYLAYER
 49
-0.5
 62
   256
  6
BYLAYER
  0
ACDBPLACEHOLDER
  5
1D
102
{ACAD_REACTORS
330
1F
102
}
330
1F
  0
XRECORD
  5
2CA
102
{ACAD_REACTORS
330
2C9
102
}
330
2C9
100
AcDbXrecord
280
     1
  1
-100
  1
*-100
  1
*
  1
*
 70
     0
  1
*
  1
*
  0
XRECORD
  5
2CB
102
{ACAD_REACTORS
330
2C9
102
}
330
2C9
100
AcDbXrecord
280
     1
  1
-50
  1
*-50
  1
*
  1
*
 70
     0
  1
*
  1
*
  0
XRECORD
  5
2CC
102
{ACAD_REACTORS
330
2C9
102
}
330
2C9
100
AcDbXrecord
280
     1
  1
-ben
  1
ben*
  1
*
  1
*
 70
     0
  1
*
  1
*
  0
XRECORD
  5
2CD
102
{ACAD_REACTORS
330
2C9
102
}
330
2C9
100
AcDbXrecord
280
     1
  1
-H
  1
00*,01*,02*,05*,1*,2*,3*,4*,5*,6*,8*
  1
*
  1
*
 70
     0
  1
*
  1
*
  0
XRECORD
  5
2CE
102
{ACAD_REACTORS
330
2C9
102
}
330
2C9
100
AcDbXrecord
280
     1
  1
-T
  1
00*,01*,03*,05*,1*,20*,21*,22*,23*,24*,25*,26*,27*,29*,2a*,3*,4*,7*,9*
  1
*
  1
*
 70
     0
  1
*
  1
*
  0
XRECORD
  5
2CF
102
{ACAD_REACTORS
330
2C9
102
}
330
2C9
100
AcDbXrecord
280
     1
  1
$
  1
*$0$*
  1
*
  1
*
 70
     0
  1
*
  1
*
  0
XRECORD
  5
2D0
102
{ACAD_REACTORS
330
2C9
102
}
330
2C9
100
AcDbXrecord
280
     1
  1
$0$
  1
$0$*
  1
*
  1
*
 70
     0
  1
*
  1
*
  0
XRECORD
  5
2D1
102
{ACAD_REACTORS
330
2C9
102
}
330
2C9
100
AcDbXrecord
280
     1
  1
0
  1
0*
  1
*
  1
*
 70
     0
  1
*
  1
*
  0
XRECORD
  5
2D2
102
{ACAD_REACTORS
330
2C9
102
}
330
2C9
100
AcDbXrecord
280
     1
  1
0-
  1
0-*
  1
*
  1
*
 70
     0
  1
*
  1
*
  0
XRECORD
  5
2D3
102
{ACAD_REACTORS
330
2C9
102
}
330
2C9
100
AcDbXrecord
280
     1
  1
00
  1
*-100
  1
*
  1
*
 70
     0
  1
*
  1
*
  0
XRECORD
  5
2D4
102
{ACAD_REACTORS
330
2C9
102
}
330
2C9
100
AcDbXrecord
280
     1
  1
01
  1
0*a*
  1
*
  1
*
 70
     0
  1
*
  1
*
  0
XRECORD
  5
2D5
102
{ACAD_REACTORS
330
2C9
102
}
330
2C9
100
AcDbXrecord
280
     1
  1
01KUTAI
  1
01KUTAI
  1
*
  1
*
 70
     0
  1
*
  1
*
  0
XRECORD
  5
2D6
102
{ACAD_REACTORS
330
2C9
102
}
330
2C9
100
AcDbXrecord
280
     1
  1
01全体計画平面図
  1
00*,02*,0A*
  1
*
  1
*
 70
     0
  1
*
  1
*
  0
XRECORD
  5
2D7
102
{ACAD_REACTORS
330
2C9
102
}
330
2C9
100
AcDbXrecord
280
     1
  1
02現況平面図
  1
00*,01*,0B*
  1
*
  1
*
 70
     0
  1
*
  1
*
  0
XRECORD
  5
2D8
102
{ACAD_REACTORS
330
2C9
102
}
330
2C9
100
AcDbXrecord
280
     1
  1
03撤去平面図
  1
00*,01*,0C*
  1
*
  1
*
 70
     0
  1
*
  1
*
  0
XRECORD
  5
2D9
102
{ACAD_REACTORS
330
2C9
102
}
330
2C9
100
AcDbXrecord
280
     1
  1
04造成平面図
  1
00*,02計*,0D*,03*,01*
  1
*
  1
*
 70
     0
  1
*
  1
*
  0
XRECORD
  5
2DA
102
{ACAD_REACTORS
330
2C9
102
}
330
2C9
100
AcDbXrecord
280
     1
  1
05
  1
*05*
  1
*
  1
*
 70
     0
  1
*
  1
*
  0
XRECORD
  5
2DB
102
{ACAD_REACTORS
330
2C9
102
}
330
2C9
100
AcDbXrecord
280
     1
  1
05施設平面図
  1
00*,02*,0E*,05*
  1
*
  1
*
 70
     0
  1
*
  1
*
  0
XRECORD
  5
2DC
102
{ACAD_REACTORS
330
2C9
102
}
330
2C9
100
AcDbXrecord
280
     1
  1
06
  1
06*
  1
*
  1
*
 70
     0
  1
*
  1
*
  0
XRECORD
  5
2DD
102
{ACAD_REACTORS
330
2C9
102
}
330
2C9
100
AcDbXrecord
280
     1
  1
06siki
  1
06*siki*,sikiti,00waku,*|*
  1
*
  1
*
 70
     0
  1
*
  1
*
  0
XRECORD
  5
2DE
102
{ACAD_REACTORS
330
2C9
102
}
330
2C9
100
AcDbXrecord
280
     1
  1
06siki2
  1
06*siki*,sikiti,00waku,*|*
  1
*
  1
*
 70
     0
  1
*
  1
*
  0
XRECORD
  5
2DF
102
{ACAD_REACTORS
330
2C9
102
}
330
2C9
100
AcDbXrecord
280
     1
  1
06排水平面図
  1
00*,02*,0F*
  1
*
  1
*
 70
     0
  1
*
  1
*
  0
XRECORD
  5
2E0
102
{ACAD_REACTORS
330
2C9
102
}
330
2C9
100
AcDbXrecord
280
     1
  1
07
  1
07*
  1
*
  1
*
 70
     0
  1
*
  1
*
  0
XRECORD
  5
2E1
102
{ACAD_REACTORS
330
2C9
102
}
330
2C9
100
AcDbXrecord
280
     1
  1
07給水平面図
  1
00*,02*,0G*
  1
*
  1
*
 70
     0
  1
*
  1
*
  0
XRECORD
  5
2E2
102
{ACAD_REACTORS
330
2C9
102
}
330
2C9
100
AcDbXrecord
280
     1
  1
0割付平面図
  1
*わ*
  1
*
  1
*
 70
     0
  1
*
  1
*
  0
XRECORD
  5
2E3
102
{ACAD_REACTORS
330
2C9
102
}
330
2C9
100
AcDbXrecord
280
     1
  1
0潅水平面
  1
*三*
  1
*
  1
*
 70
     0
  1
*
  1
*
  0
XRECORD
  5
2E4
102
{ACAD_REACTORS
330
2C9
102
}
330
2C9
100
AcDbXrecord
280
     1
  1
0計画平面
  1
*け*
  1
*
  1
*
 70
     0
  1
*
  1
*
  0
XRECORD
  5
2E5
102
{ACAD_REACTORS
330
2C9
102
}
330
2C9
100
AcDbXrecord
280
     1
  1
0高木植栽
  1
*こ*
  1
*
  1
*
 70
     0
  1
*
  1
*
  0
XRECORD
  5
2E6
102
{ACAD_REACTORS
330
2C9
102
}
330
2C9
100
AcDbXrecord
280
     1
  1
0施設平面
  1
*し*
  1
*
  1
*
 70
     0
  1
*
  1
*
  0
XRECORD
  5
2E7
102
{ACAD_REACTORS
330
2C9
102
}
330
2C9
100
AcDbXrecord
280
     1
  1
0床内
  1
FI-*
  1
*
  1
*
 70
     0
  1
*
  1
*
  0
XRECORD
  5
2E8
102
{ACAD_REACTORS
330
2C9
102
}
330
2C9
100
AcDbXrecord
280
     1
  1
0床壁
  1
FW*
  1
*
  1
*
 70
     0
  1
*
  1
*
  0
XRECORD
  5
2E9
102
{ACAD_REACTORS
330
2C9
102
}
330
2C9
100
AcDbXrecord
280
     1
  1
0照明配置図
  1
*め*
  1
*
  1
*
 70
     0
  1
*
  1
*
  0
XRECORD
  5
2EA
102
{ACAD_REACTORS
330
2C9
102
}
330
2C9
100
AcDbXrecord
280
     1
  1
0詳細図
  1
*-d
  1
*
  1
*
 70
     0
  1
*
  1
*
  0
XRECORD
  5
2EB
102
{ACAD_REACTORS
330
2C9
102
}
330
2C9
100
AcDbXrecord
280
     1
  1
0植栽基盤
  1
*ど*
  1
*
  1
*
 70
     0
  1
*
  1
*
  0
XRECORD
  5
2EC
102
{ACAD_REACTORS
330
2C9
102
}
330
2C9
100
AcDbXrecord
280
     1
  1
0全体工区区分図
  1
*ぜ*
  1
*
  1
*
 70
     0
  1
*
  1
*
  0
XRECORD
  5
2ED
102
{ACAD_REACTORS
330
2C9
102
}
330
2C9
100
AcDbXrecord
280
     1
  1
0総合図off
  1
*-s
  1
*
  1
*
 70
     0
  1
*
  1
*
  0
XRECORD
  5
2EE
102
{ACAD_REACTORS
330
2C9
102
}
330
2C9
100
AcDbXrecord
280
     1
  1
0総合図枠
  1
*-2
  1
*
  1
*
 70
     0
  1
*
  1
*
  0
XRECORD
  5
2EF
102
{ACAD_REACTORS
330
2C9
102
}
330
2C9
100
AcDbXrecord
280
     1
  1
0低木
  1
*て*
  1
*
  1
*
 70
     0
  1
*
  1
*
  0
XRECORD
  5
2F0
102
{ACAD_REACTORS
330
2C9
102
}
330
2C9
100
AcDbXrecord
280
     1
  1
0排水平面
  1
*は*
  1
*
  1
*
 70
     0
  1
*
  1
*
  0
XRECORD
  5
2F1
102
{ACAD_REACTORS
330
2C9
102
}
330
2C9
100
AcDbXrecord
280
     1
  1
0平詳枠
  1
*-1
  1
*
  1
*
 70
     0
  1
*
  1
*
  0
XRECORD
  5
2F2
102
{ACAD_REACTORS
330
2C9
102
}
330
2C9
100
AcDbXrecord
280
     1
  1
0擁壁平面図
  1
*よ*
  1
*
  1
*
 70
     0
  1
*
  1
*
  0
XRECORD
  5
2F3
102
{ACAD_REACTORS
330
2C9
102
}
330
2C9
100
AcDbXrecord
280
     1
  1
1
  1
*
  1
*
  1
*
 70
     0
  1
*
  1
*
  0
XRECORD
  5
2F4
102
{ACAD_REACTORS
330
2C9
102
}
330
2C9
100
AcDbXrecord
280
     1
  1
10
  1
*
  1
10
  1
*
 70
     0
  1
*
  1
*
  0
XRECORD
  5
2F5
102
{ACAD_REACTORS
330
2C9
102
}
330
2C9
100
AcDbXrecord
280
     1
  1
100
  1
50*
  1
*
  1
*
 70
     0
  1
*
  1
*
  0
XRECORD
  5
2F6
102
{ACAD_REACTORS
330
2C9
102
}
330
2C9
100
AcDbXrecord
280
     1
  1
10植栽平面図
  1
00*,02*,0I*
  1
*
  1
*
 70
     0
  1
*
  1
*
  0
XRECORD
  5
2F7
102
{ACAD_REACTORS
330
2C9
102
}
330
2C9
100
AcDbXrecord
280
     1
  1
11
  1
11*
  1
*
  1
*
 70
     0
  1
*
  1
*
  0
XRECORD
  5
2F8
102
{ACAD_REACTORS
330
2C9
102
}
330
2C9
100
AcDbXrecord
280
     1
  1
1111
  1
*-50
  1
*
  1
*
 70
     0
  1
*
  1
*
  0
XRECORD
  5
2F9
102
{ACAD_REACTORS
330
2C9
102
}
330
2C9
100
AcDbXrecord
280
     1
  1
11寸法図
  1
00*,02*,0K*,03*
  1
*
  1
*
 70
     0
  1
*
  1
*
  0
XRECORD
  5
2FA
102
{ACAD_REACTORS
330
2C9
102
}
330
2C9
100
AcDbXrecord
280
     1
  1
12
  1
*
  1
*12
  1
*
 70
     0
  1
*
  1
*
  0
XRECORD
  5
2FB
102
{ACAD_REACTORS
330
2C9
102
}
330
2C9
100
AcDbXrecord
280
     1
  1
19
  1
*19*
  1
*
  1
*
 70
     0
  1
*
  1
*
  0
XRECORD
  5
2FC
102
{ACAD_REACTORS
330
2C9
102
}
330
2C9
100
AcDbXrecord
280
     1
  1
１Ｆ床伏OFF
  1
-*
  1
*
  1
*
 70
     0
  1
*
  1
*
  0
XRECORD
  5
2FD
102
{ACAD_REACTORS
330
2C9
102
}
330
2C9
100
AcDbXrecord
280
     1
  1
1階
  1
*1階*
  1
*
  1
*
 70
     0
  1
*
  1
*
  0
XRECORD
  5
2FE
102
{ACAD_REACTORS
330
2C9
102
}
330
2C9
100
AcDbXrecord
280
     1
  1
1床
  1
F-*
  1
*
  1
*
 70
     0
  1
*
  1
*
  0
XRECORD
  5
2FF
102
{ACAD_REACTORS
330
2C9
102
}
330
2C9
100
AcDbXrecord
280
     1
  1
1芯
  1
1*
  1
*
  1
*
 70
     0
  1
*
  1
*
  0
XRECORD
  5
300
102
{ACAD_REACTORS
330
2C9
102
}
330
2C9
100
AcDbXrecord
280
     1
  1
1芯線
  1
1*
  1
*
  1
*
 70
     0
  1
*
  1
*
  0
XRECORD
  5
301
102
{ACAD_REACTORS
330
2C9
102
}
330
2C9
100
AcDbXrecord
280
     1
  1
20
  1
*20
  1
*
  1
*
 70
     0
  1
*
  1
*
  0
XRECORD
  5
302
102
{ACAD_REACTORS
330
2C9
102
}
330
2C9
100
AcDbXrecord
280
     1
  1
21
  1
*
  1
21
  1
*
 70
     0
  1
*
  1
*
  0
XRECORD
  5
303
102
{ACAD_REACTORS
330
2C9
102
}
330
2C9
100
AcDbXrecord
280
     1
  1
250
  1
*250*
  1
*
  1
*
 70
     0
  1
*
  1
*
  0
XRECORD
  5
304
102
{ACAD_REACTORS
330
2C9
102
}
330
2C9
100
AcDbXrecord
280
     1
  1
2fmiage
  1
*
  1
*
  1
*
 70
     1
  1
*
  1
*
  0
XRECORD
  5
305
102
{ACAD_REACTORS
330
2C9
102
}
330
2C9
100
AcDbXrecord
280
     1
  1
2躯体
  1
2*
  1
*
  1
*
 70
     0
  1
*
  1
*
  0
XRECORD
  5
306
102
{ACAD_REACTORS
330
2C9
102
}
330
2C9
100
AcDbXrecord
280
     1
  1
2断面
  1
2*
  1
*
  1
*
 70
     0
  1
*
  1
*
  0
XRECORD
  5
307
102
{ACAD_REACTORS
330
2C9
102
}
330
2C9
100
AcDbXrecord
280
     1
  1
2壁
  1
W-*
  1
*
  1
*
 70
     0
  1
*
  1
*
  0
XRECORD
  5
308
102
{ACAD_REACTORS
330
2C9
102
}
330
2C9
100
AcDbXrecord
280
     1
  1
300
  1
*300*
  1
*
  1
*
 70
     0
  1
*
  1
*
  0
XRECORD
  5
309
102
{ACAD_REACTORS
330
2C9
102
}
330
2C9
100
AcDbXrecord
280
     1
  1
32
  1
*
  1
32
  1
*
 70
     0
  1
*
  1
*
  0
XRECORD
  5
30A
102
{ACAD_REACTORS
330
2C9
102
}
330
2C9
100
AcDbXrecord
280
     1
  1
333
  1
*
  1
*
  1
*
 70
    12
  1
*
  1
*
  0
XRECORD
  5
30B
102
{ACAD_REACTORS
330
2C9
102
}
330
2C9
100
AcDbXrecord
280
     1
  1
37
  1
*37
  1
*
  1
*
 70
     0
  1
*
  1
*
  0
XRECORD
  5
30C
102
{ACAD_REACTORS
330
2C9
102
}
330
2C9
100
AcDbXrecord
280
     1
  1
3D
  1
3D*
  1
*
  1
*
 70
     0
  1
*
  1
*
  0
XRECORD
  5
30D
102
{ACAD_REACTORS
330
2C9
102
}
330
2C9
100
AcDbXrecord
280
     1
  1
3開口
  1
3*
  1
*
  1
*
 70
     0
  1
*
  1
*
  0
XRECORD
  5
30E
102
{ACAD_REACTORS
330
2C9
102
}
330
2C9
100
AcDbXrecord
280
     1
  1
3見掛り
  1
3*
  1
*
  1
*
 70
     0
  1
*
  1
*
  0
XRECORD
  5
30F
102
{ACAD_REACTORS
330
2C9
102
}
330
2C9
100
AcDbXrecord
280
     1
  1
3天井内
  1
CI-*
  1
*
  1
*
 70
     0
  1
*
  1
*
  0
XRECORD
  5
310
102
{ACAD_REACTORS
330
2C9
102
}
330
2C9
100
AcDbXrecord
280
     1
  1
41
  1
41
  1
*
  1
*
 70
     1
  1
*
  1
*
  0
XRECORD
  5
311
102
{ACAD_REACTORS
330
2C9
102
}
330
2C9
100
AcDbXrecord
280
     1
  1
4仕上げ
  1
4*
  1
*
  1
*
 70
     0
  1
*
  1
*
  0
XRECORD
  5
312
102
{ACAD_REACTORS
330
2C9
102
}
330
2C9
100
AcDbXrecord
280
     1
  1
4天井
  1
C-*
  1
*
  1
*
 70
     0
  1
*
  1
*
  0
XRECORD
  5
313
102
{ACAD_REACTORS
330
2C9
102
}
330
2C9
100
AcDbXrecord
280
     1
  1
5
  1
*5
  1
*
  1
*
 70
     1
  1
*
  1
*
  0
XRECORD
  5
314
102
{ACAD_REACTORS
330
2C9
102
}
330
2C9
100
AcDbXrecord
280
     1
  1
50
  1
*-50
  1
*
  1
*
 70
     0
  1
*
  1
*
  0
XRECORD
  5
315
102
{ACAD_REACTORS
330
2C9
102
}
330
2C9
100
AcDbXrecord
280
     1
  1
50off
  1
50*
  1
*
  1
*
 70
     0
  1
*
  1
*
  0
XRECORD
  5
316
102
{ACAD_REACTORS
330
2C9
102
}
330
2C9
100
AcDbXrecord
280
     1
  1
51-52
  1
5*
  1
*
  1
*
 70
     0
  1
*
  1
*
  0
XRECORD
  5
317
102
{ACAD_REACTORS
330
2C9
102
}
330
2C9
100
AcDbXrecord
280
     1
  1
555
  1
*
  1
*
  1
*
 70
     1
  1
*
  1
*
  0
XRECORD
  5
318
102
{ACAD_REACTORS
330
2C9
102
}
330
2C9
100
AcDbXrecord
280
     1
  1
5寸法
  1
5*
  1
*
  1
*
 70
     0
  1
*
  1
*
  0
XRECORD
  5
319
102
{ACAD_REACTORS
330
2C9
102
}
330
2C9
100
AcDbXrecord
280
     1
  1
5文字
  1
*TXT*
  1
*
  1
*
 70
     0
  1
*
  1
*
  0
XRECORD
  5
31A
102
{ACAD_REACTORS
330
2C9
102
}
330
2C9
100
AcDbXrecord
280
     1
  1
6
  1
*
  1
6
  1
*
 70
     0
  1
*
  1
*
  0
XRECORD
  5
31B
102
{ACAD_REACTORS
330
2C9
102
}
330
2C9
100
AcDbXrecord
280
     1
  1
66-躯体図
  1
0,Defpoints,HOJO,雲マーク,000*,010*,020*,1*,400*,470*,520*,570*,08*
  1
*
  1
*
 70
     0
  1
*
  1
*
  0
XRECORD
  5
31C
102
{ACAD_REACTORS
330
2C9
102
}
330
2C9
100
AcDbXrecord
280
     1
  1
66躯体図
  1
0,Defpoints,HOJO,雲マーク,000*,010*,020*,1*,400*,470*,520*,570*,08*,6*
  1
*
  1
*
 70
     0
  1
*
  1
*
  0
XRECORD
  5
31D
102
{ACAD_REACTORS
330
2C9
102
}
330
2C9
100
AcDbXrecord
280
     1
  1
6記号
  1
6*
  1
*
  1
*
 70
     0
  1
*
  1
*
  0
XRECORD
  5
31E
102
{ACAD_REACTORS
330
2C9
102
}
330
2C9
100
AcDbXrecord
280
     1
  1
6文字
  1
6*
  1
*
  1
*
 70
     0
  1
*
  1
*
  0
XRECORD
  5
31F
102
{ACAD_REACTORS
330
2C9
102
}
330
2C9
100
AcDbXrecord
280
     1
  1
6保留
  1
*_a
  1
*
  1
*
 70
     0
  1
*
  1
*
  0
XRECORD
  5
320
102
{ACAD_REACTORS
330
2C9
102
}
330
2C9
100
AcDbXrecord
280
     1
  1
767
  1
*
  1
*
  1
*
 70
     0
  1
*
  1
*
  0
XRECORD
  5
321
102
{ACAD_REACTORS
330
2C9
102
}
330
2C9
100
AcDbXrecord
280
     1
  1
767SE13-0...$
  1
*
  1
*
  1
*
 70
     0
  1
*
  1
*
  0
XRECORD
  5
322
102
{ACAD_REACTORS
330
2C9
102
}
330
2C9
100
AcDbXrecord
280
     1
  1
767SE13-07-99$0$
  1
*
  1
*
  1
*
 70
     0
  1
*
  1
*
  0
XRECORD
  5
323
102
{ACAD_REACTORS
330
2C9
102
}
330
2C9
100
AcDbXrecord
280
     1
  1
7記号
  1
7*
  1
*
  1
*
 70
     0
  1
*
  1
*
  0
XRECORD
  5
324
102
{ACAD_REACTORS
330
2C9
102
}
330
2C9
100
AcDbXrecord
280
     1
  1
8
  1
*
  1
8
  1
*
 70
    12
  1
*
  1
*
  0
XRECORD
  5
325
102
{ACAD_REACTORS
330
2C9
102
}
330
2C9
100
AcDbXrecord
280
     1
  1
8寸法
  1
8*
  1
*
  1
*
 70
     0
  1
*
  1
*
  0
XRECORD
  5
326
102
{ACAD_REACTORS
330
2C9
102
}
330
2C9
100
AcDbXrecord
280
     1
  1
8設備
  1
8*
  1
*
  1
*
 70
     0
  1
*
  1
*
  0
XRECORD
  5
327
102
{ACAD_REACTORS
330
2C9
102
}
330
2C9
100
AcDbXrecord
280
     1
  1
9文字
  1
9*
  1
*
  1
*
 70
     0
  1
*
  1
*
  0
XRECORD
  5
328
102
{ACAD_REACTORS
330
2C9
102
}
330
2C9
100
AcDbXrecord
280
     1
  1
9目地
  1
9*
  1
*
  1
*
 70
     0
  1
*
  1
*
  0
XRECORD
  5
329
102
{ACAD_REACTORS
330
2C9
102
}
330
2C9
100
AcDbXrecord
280
     1
  1
A
  1
A*
  1
*
  1
*
 70
     0
  1
*
  1
*
  0
XRECORD
  5
32A
102
{ACAD_REACTORS
330
2C9
102
}
330
2C9
100
AcDbXrecord
280
     1
  1
A-
  1
A-*
  1
*
  1
*
 70
     0
  1
*
  1
*
  0
XRECORD
  5
32B
102
{ACAD_REACTORS
330
2C9
102
}
330
2C9
100
AcDbXrecord
280
     1
  1
A(枠･表)を表示
  1
A*
  1
*
  1
*
 70
     0
  1
*
  1
*
  0
XRECORD
  5
32C
102
{ACAD_REACTORS
330
2C9
102
}
330
2C9
100
AcDbXrecord
280
     1
  1
A01
  1
*A01*
  1
*
  1
*
 70
     0
  1
*
  1
*
  0
XRECORD
  5
32D
102
{ACAD_REACTORS
330
2C9
102
}
330
2C9
100
AcDbXrecord
280
     1
  1
A1.DEMO-KEY NOTE
  1
*-D-*
  1
*
  1
*
 70
     0
  1
*
  1
*
  0
XRECORD
  5
32E
102
{ACAD_REACTORS
330
2C9
102
}
330
2C9
100
AcDbXrecord
280
     1
  1
A2. CONS-KEY NOTE
  1
*-C-*
  1
*
  1
*
 70
     0
  1
*
  1
*
  0
XRECORD
  5
32F
102
{ACAD_REACTORS
330
2C9
102
}
330
2C9
100
AcDbXrecord
280
     1
  1
A21
  1
*A21*
  1
*
  1
*
 70
     0
  1
*
  1
*
  0
XRECORD
  5
330
102
{ACAD_REACTORS
330
2C9
102
}
330
2C9
100
AcDbXrecord
280
     1
  1
A3
  1
*A3
  1
*
  1
*
 70
     0
  1
*
  1
*
  0
XRECORD
  5
331
102
{ACAD_REACTORS
330
2C9
102
}
330
2C9
100
AcDbXrecord
280
     1
  1
A3. RCP-LAYER
  1
*R-SCH*
  1
*
  1
*
 70
     0
  1
*
  1
*
  0
XRECORD
  5
332
102
{ACAD_REACTORS
330
2C9
102
}
330
2C9
100
AcDbXrecord
280
     1
  1
A3D. RCP_DEMO-KEY NOTE
  1
*-RD-*
  1
*
  1
*
 70
     0
  1
*
  1
*
  0
XRECORD
  5
333
102
{ACAD_REACTORS
330
2C9
102
}
330
2C9
100
AcDbXrecord
280
     1
  1
A4. P&T- KEY NOTE
  1
*T-SCH*
  1
*
  1
*
 70
     0
  1
*
  1
*
  0
XRECORD
  5
334
102
{ACAD_REACTORS
330
2C9
102
}
330
2C9
100
AcDbXrecord
280
     1
  1
A4D. EL_DEMO-KEY NOTE
  1
*-ED-*
  1
*
  1
*
 70
     0
  1
*
  1
*
  0
XRECORD
  5
335
102
{ACAD_REACTORS
330
2C9
102
}
330
2C9
100
AcDbXrecord
280
     1
  1
A5. FINISH-KEY NOTE
  1
*-N-*
  1
*
  1
*
 70
     0
  1
*
  1
*
  0
XRECORD
  5
336
102
{ACAD_REACTORS
330
2C9
102
}
330
2C9
100
AcDbXrecord
280
     1
  1
A6. FURN-KEY NOTE
  1
*-F-*
  1
*
  1
*
 70
     0
  1
*
  1
*
  0
XRECORD
  5
337
102
{ACAD_REACTORS
330
2C9
102
}
330
2C9
100
AcDbXrecord
280
     1
  1
aa
  1
*aa*
  1
*
  1
*
 70
     0
  1
*
  1
*
  0
XRECORD
  5
338
102
{ACAD_REACTORS
330
2C9
102
}
330
2C9
100
AcDbXrecord
280
     1
  1
aaa
  1
*
  1
*
  1
*
 70
     0
  1
*
  1
*
  0
XRECORD
  5
339
102
{ACAD_REACTORS
330
2C9
102
}
330
2C9
100
AcDbXrecord
280
     1
  1
AB棟
  1
ＡＢ棟*
  1
*
  1
*
 70
     0
  1
*
  1
*
  0
XRECORD
  5
33A
102
{ACAD_REACTORS
330
2C9
102
}
330
2C9
100
AcDbXrecord
280
     1
  1
ＡＢ棟
  1
ＡＢ棟*
  1
*
  1
*
 70
     0
  1
*
  1
*
  0
XRECORD
  5
33B
102
{ACAD_REACTORS
330
2C9
102
}
330
2C9
100
AcDbXrecord
280
     1
  1
ACTIVE
  1
C.*
  1
*
  1
*
 70
     0
  1
*
  1
*
  0
XRECORD
  5
33C
102
{ACAD_REACTORS
330
2C9
102
}
330
2C9
100
AcDbXrecord
280
     1
  1
ACTIVE2
  1
B-*
  1
*
  1
*
 70
     0
  1
*
  1
*
  0
XRECORD
  5
33D
102
{ACAD_REACTORS
330
2C9
102
}
330
2C9
100
AcDbXrecord
280
     1
  1
ALC
  1
*ALC
  1
*
  1
*
 70
     0
  1
*
  1
*
  0
XRECORD
  5
33E
102
{ACAD_REACTORS
330
2C9
102
}
330
2C9
100
AcDbXrecord
280
     1
  1
ALL
  1
*
  1
*
  1
*
 70
     3
  1
*
  1
*
  0
XRECORD
  5
33F
102
{ACAD_REACTORS
330
2C9
102
}
330
2C9
100
AcDbXrecord
280
     1
  1
all選択
  1
*
  1
*
  1
*
 70
     0
  1
*
  1
*
  0
XRECORD
  5
340
102
{ACAD_REACTORS
330
2C9
102
}
330
2C9
100
AcDbXrecord
280
     1
  1
AMENAGEMENT
  1
*
  1
*
  1
*
 70
    13
  1
*
  1
*
  0
XRECORD
  5
341
102
{ACAD_REACTORS
330
2C9
102
}
330
2C9
100
AcDbXrecord
280
     1
  1
AQ
  1
AQ*
  1
*
  1
*
 70
     0
  1
*
  1
*
  0
XRECORD
  5
342
102
{ACAD_REACTORS
330
2C9
102
}
330
2C9
100
AcDbXrecord
280
     1
  1
ARBOL
  1
*ARBOL*
  1
*
  1
*
 70
     0
  1
*
  1
*
  0
XRECORD
  5
343
102
{ACAD_REACTORS
330
2C9
102
}
330
2C9
100
AcDbXrecord
280
     1
  1
AREA
  1
*AREA*
  1
*
  1
*
 70
     0
  1
*
  1
*
  0
XRECORD
  5
344
102
{ACAD_REACTORS
330
2C9
102
}
330
2C9
100
AcDbXrecord
280
     1
  1
AREA-SG
  1
*6AREA-SG
  1
6
  1
*
 70
     0
  1
*
  1
*
  0
XRECORD
  5
345
102
{ACAD_REACTORS
330
2C9
102
}
330
2C9
100
AcDbXrecord
280
     1
  1
AS1
  1
*AS1
  1
*
  1
*
 70
     0
  1
*
  1
*
  0
XRECORD
  5
346
102
{ACAD_REACTORS
330
2C9
102
}
330
2C9
100
AcDbXrecord
280
     1
  1
aハッチング
  1
a*
  1
*
  1
*
 70
     0
  1
*
  1
*
  0
XRECORD
  5
347
102
{ACAD_REACTORS
330
2C9
102
}
330
2C9
100
AcDbXrecord
280
     1
  1
A空調
  1
*
  1
*
  1
*
 70
     0
  1
*
  1
KUCYOU
  0
XRECORD
  5
348
102
{ACAD_REACTORS
330
2C9
102
}
330
2C9
100
AcDbXrecord
280
     1
  1
B
  1
B*
  1
*
  1
*
 70
     0
  1
*
  1
*
  0
XRECORD
  5
349
102
{ACAD_REACTORS
330
2C9
102
}
330
2C9
100
AcDbXrecord
280
     1
  1
B(基準)を表示
  1
B*
  1
*
  1
*
 70
     0
  1
*
  1
*
  0
XRECORD
  5
34A
102
{ACAD_REACTORS
330
2C9
102
}
330
2C9
100
AcDbXrecord
280
     1
  1
B2
  1
B2*
  1
*
  1
*
 70
     1
  1
*
  1
*
  0
XRECORD
  5
34B
102
{ACAD_REACTORS
330
2C9
102
}
330
2C9
100
AcDbXrecord
280
     1
  1
B3
  1
B3*
  1
*
  1
*
 70
     0
  1
*
  1
*
  0
XRECORD
  5
34C
102
{ACAD_REACTORS
330
2C9
102
}
330
2C9
100
AcDbXrecord
280
     1
  1
BAL
  1
*BAL
  1
*
  1
*
 70
     0
  1
*
  1
*
  0
XRECORD
  5
34D
102
{ACAD_REACTORS
330
2C9
102
}
330
2C9
100
AcDbXrecord
280
     1
  1
baru
  1
*51A
  1
*
  1
*
 70
     0
  1
*
  1
*
  0
XRECORD
  5
34E
102
{ACAD_REACTORS
330
2C9
102
}
330
2C9
100
AcDbXrecord
280
     1
  1
baru2
  1
*AS1A
  1
*
  1
*
 70
     0
  1
*
  1
*
  0
XRECORD
  5
34F
102
{ACAD_REACTORS
330
2C9
102
}
330
2C9
100
AcDbXrecord
280
     1
  1
BASE
  1
*I4BASE
  1
*
  1
*
 70
     0
  1
*
  1
*
  0
XRECORD
  5
350
102
{ACAD_REACTORS
330
2C9
102
}
330
2C9
100
AcDbXrecord
280
     1
  1
bb
  1
rogarpissu,block
  1
*
  1
*
 70
     0
  1
*
  1
*
  0
XRECORD
  5
351
102
{ACAD_REACTORS
330
2C9
102
}
330
2C9
100
AcDbXrecord
280
     1
  1
bbbb
  1
prova
  1
*
  1
*
 70
    55
  1
*
  1
*
  0
XRECORD
  5
352
102
{ACAD_REACTORS
330
2C9
102
}
330
2C9
100
AcDbXrecord
280
     1
  1
beam
  1
*beam*
  1
*
  1
*
 70
     0
  1
*
  1
*
  0
XRECORD
  5
353
102
{ACAD_REACTORS
330
2C9
102
}
330
2C9
100
AcDbXrecord
280
     1
  1
blocchi
  1
mqa*
  1
*
  1
*
 70
     0
  1
*
  1
*
  0
XRECORD
  5
354
102
{ACAD_REACTORS
330
2C9
102
}
330
2C9
100
AcDbXrecord
280
     1
  1
blue
  1
*
  1
blue
  1
*
 70
     0
  1
*
  1
*
  0
XRECORD
  5
355
102
{ACAD_REACTORS
330
2C9
102
}
330
2C9
100
AcDbXrecord
280
     1
  1
BSM
  1
*BSM*
  1
*
  1
*
 70
     0
  1
*
  1
*
  0
XRECORD
  5
356
102
{ACAD_REACTORS
330
2C9
102
}
330
2C9
100
AcDbXrecord
280
     1
  1
b階段
  1
b*
  1
*
  1
*
 70
     0
  1
*
  1
*
  0
XRECORD
  5
357
102
{ACAD_REACTORS
330
2C9
102
}
330
2C9
100
AcDbXrecord
280
     1
  1
B電気
  1
*
  1
*
  1
*
 70
     0
  1
*
  1
DENKI
  0
XRECORD
  5
358
102
{ACAD_REACTORS
330
2C9
102
}
330
2C9
100
AcDbXrecord
280
     1
  1
c
  1
c*
  1
*
  1
*
 70
    61
  1
*
  1
*
  0
XRECORD
  5
359
102
{ACAD_REACTORS
330
2C9
102
}
330
2C9
100
AcDbXrecord
280
     1
  1
c-block
  1
c-*
  1
*
  1
*
 70
     0
  1
*
  1
*
  0
XRECORD
  5
35A
102
{ACAD_REACTORS
330
2C9
102
}
330
2C9
100
AcDbXrecord
280
     1
  1
c-block-2
  1
c-*
  1
*
  1
*
 70
  1024
  1
*
  1
*
  0
XRECORD
  5
35B
102
{ACAD_REACTORS
330
2C9
102
}
330
2C9
100
AcDbXrecord
280
     1
  1
C(寸･文･記)を表示
  1
C*
  1
*
  1
*
 70
     0
  1
*
  1
*
  0
XRECORD
  5
35C
102
{ACAD_REACTORS
330
2C9
102
}
330
2C9
100
AcDbXrecord
280
     1
  1
cajetin
  1
caj*
  1
*
  1
*
 70
     0
  1
*
  1
*
  0
XRECORD
  5
35D
102
{ACAD_REACTORS
330
2C9
102
}
330
2C9
100
AcDbXrecord
280
     1
  1
cc
  1
*
  1
*
  1
*
 70
     0
  1
*
  1
*
  0
XRECORD
  5
35E
102
{ACAD_REACTORS
330
2C9
102
}
330
2C9
100
AcDbXrecord
280
     1
  1
CD06
  1
CD06*
  1
*
  1
*
 70
     0
  1
*
  1
*
  0
XRECORD
  5
35F
102
{ACAD_REACTORS
330
2C9
102
}
330
2C9
100
AcDbXrecord
280
     1
  1
ＣＤ棟
  1
T15-*
  1
*
  1
*
 70
     0
  1
*
  1
*
  0
XRECORD
  5
360
102
{ACAD_REACTORS
330
2C9
102
}
330
2C9
100
AcDbXrecord
280
     1
  1
ceiling
  1
*ceiling*
  1
*
  1
*
 70
     0
  1
*
  1
*
  0
XRECORD
  5
361
102
{ACAD_REACTORS
330
2C9
102
}
330
2C9
100
AcDbXrecord
280
     1
  1
CEILINGS XREF
  1
*CE-SUSPENDED-CEILINGS
  1
*
  1
*
 70
     0
  1
*
  1
*
  0
XRECORD
  5
362
102
{ACAD_REACTORS
330
2C9
102
}
330
2C9
100
AcDbXrecord
280
     1
  1
CEL
  1
*
  1
*
  1
*
 70
     0
  1
*
  1
*
  0
XRECORD
  5
363
102
{ACAD_REACTORS
330
2C9
102
}
330
2C9
100
AcDbXrecord
280
     1
  1
che
  1
che*
  1
*
  1
*
 70
     0
  1
*
  1
*
  0
XRECORD
  5
364
102
{ACAD_REACTORS
330
2C9
102
}
330
2C9
100
AcDbXrecord
280
     1
  1
chika
  1
2躯体構造体点線
  1
211
  1
*
 70
     0
  1
*
  1
*
  0
XRECORD
  5
365
102
{ACAD_REACTORS
330
2C9
102
}
330
2C9
100
AcDbXrecord
280
     1
  1
CLG
  1
*CLG*
  1
*
  1
*
 70
     0
  1
*
  1
*
  0
XRECORD
  5
366
102
{ACAD_REACTORS
330
2C9
102
}
330
2C9
100
AcDbXrecord
280
     1
  1
COL
  1
*COL*
  1
*
  1
*
 70
     0
  1
*
  1
*
  0
XRECORD
  5
367
102
{ACAD_REACTORS
330
2C9
102
}
330
2C9
100
AcDbXrecord
280
     1
  1
cold beam
  1
*cold*
  1
*
  1
*
 70
     0
  1
*
  1
*
  0
XRECORD
  5
368
102
{ACAD_REACTORS
330
2C9
102
}
330
2C9
100
AcDbXrecord
280
     1
  1
colu
  1
*colu*
  1
*
  1
*
 70
     0
  1
*
  1
*
  0
XRECORD
  5
369
102
{ACAD_REACTORS
330
2C9
102
}
330
2C9
100
AcDbXrecord
280
     1
  1
com
  1
com*
  1
*
  1
*
 70
     0
  1
*
  1
*
  0
XRECORD
  5
36A
102
{ACAD_REACTORS
330
2C9
102
}
330
2C9
100
AcDbXrecord
280
     1
  1
con
  1
c-*
  1
*
  1
*
 70
     0
  1
*
  1
*
  0
XRECORD
  5
36B
102
{ACAD_REACTORS
330
2C9
102
}
330
2C9
100
AcDbXrecord
280
     1
  1
CRG
  1
tca-6f|*CRG*
  1
*
  1
*
 70
     0
  1
*
  1
*
  0
XRECORD
  5
36C
102
{ACAD_REACTORS
330
2C9
102
}
330
2C9
100
AcDbXrecord
280
     1
  1
cyan
  1
*
  1
cyan
  1
*
 70
     0
  1
*
  1
*
  0
XRECORD
  5
36D
102
{ACAD_REACTORS
330
2C9
102
}
330
2C9
100
AcDbXrecord
280
     1
  1
C衛生
  1
*
  1
*
  1
*
 70
     0
  1
*
  1
EISEI
  0
XRECORD
  5
36E
102
{ACAD_REACTORS
330
2C9
102
}
330
2C9
100
AcDbXrecord
280
     1
  1
C街区関連
  1
*
  1
*
  1
*
 70
  1024
  1
*
  1
*
  0
XRECORD
  5
36F
102
{ACAD_REACTORS
330
2C9
102
}
330
2C9
100
AcDbXrecord
280
     1
  1
c雑金物
  1
c*
  1
*
  1
*
 70
     0
  1
*
  1
*
  0
XRECORD
  5
370
102
{ACAD_REACTORS
330
2C9
102
}
330
2C9
100
AcDbXrecord
280
     1
  1
C打計画図
  1
001*,002*,003*,004*,005*,007*,012*,015*,016*,017*,018*,019*,020*,021*,049*,050*,051*,052*,053*,054*,055*,056*,057*,058*,059*,060*,061*,062*,063*,064*,065*,066*,067*,068*,069*,070*,071*,072*,073*,074*,075*
  1
*
  1
*
 70
     0
  1
*
  1
*
  0
XRECORD
  5
371
102
{ACAD_REACTORS
330
2C9
102
}
330
2C9
100
AcDbXrecord
280
     1
  1
D
  1
D*
  1
*
  1
*
 70
     0
  1
*
  1
*
  0
XRECORD
  5
372
102
{ACAD_REACTORS
330
2C9
102
}
330
2C9
100
AcDbXrecord
280
     1
  1
D(表現補助)を表示
  1
D*
  1
*
  1
*
 70
     0
  1
*
  1
*
  0
XRECORD
  5
373
102
{ACAD_REACTORS
330
2C9
102
}
330
2C9
100
AcDbXrecord
280
     1
  1
Ｄ・墓地　施設平面
  1
*も*
  1
*
  1
*
 70
     0
  1
*
  1
*
  0
XRECORD
  5
374
102
{ACAD_REACTORS
330
2C9
102
}
330
2C9
100
AcDbXrecord
280
     1
  1
D16
  1
D16*
  1
*
  1
*
 70
     0
  1
*
  1
*
  0
XRECORD
  5
375
102
{ACAD_REACTORS
330
2C9
102
}
330
2C9
100
AcDbXrecord
280
     1
  1
DASHED
  1
*
  1
*
  1
DASHED
 70
     0
  1
*
  1
*
  0
XRECORD
  5
376
102
{ACAD_REACTORS
330
2C9
102
}
330
2C9
100
AcDbXrecord
280
     1
  1
DASHED2
  1
*
  1
*
  1
DASHED
 70
     0
  1
*
  1
*
  0
XRECORD
  5
377
102
{ACAD_REACTORS
330
2C9
102
}
330
2C9
100
AcDbXrecord
280
     1
  1
DEMO
  1
*DEMO*
  1
*
  1
*
 70
     0
  1
*
  1
*
  0
XRECORD
  5
378
102
{ACAD_REACTORS
330
2C9
102
}
330
2C9
100
AcDbXrecord
280
     1
  1
DEMOLITION
  1
*DEMO*
  1
*
  1
*
 70
     0
  1
*
  1
*
  0
XRECORD
  5
379
102
{ACAD_REACTORS
330
2C9
102
}
330
2C9
100
AcDbXrecord
280
     1
  1
detail
  1
d*
  1
*
  1
*
 70
     0
  1
*
  1
*
  0
XRECORD
  5
37A
102
{ACAD_REACTORS
330
2C9
102
}
330
2C9
100
AcDbXrecord
280
     1
  1
details
  1
det-*
  1
*
  1
*
 70
     0
  1
*
  1
*
  0
XRECORD
  5
37B
102
{ACAD_REACTORS
330
2C9
102
}
330
2C9
100
AcDbXrecord
280
     1
  1
DHED
  1
*DHED*
  1
*
  1
*
 70
     0
  1
*
  1
*
  0
XRECORD
  5
37C
102
{ACAD_REACTORS
330
2C9
102
}
330
2C9
100
AcDbXrecord
280
     1
  1
Dim
  1
*-Dim*
  1
*
  1
*
 70
     0
  1
*
  1
*
  0
XRECORD
  5
37D
102
{ACAD_REACTORS
330
2C9
102
}
330
2C9
100
AcDbXrecord
280
     1
  1
disegno
  1
ben*
  1
*
  1
*
 70
     0
  1
*
  1
*
  0
XRECORD
  5
37E
102
{ACAD_REACTORS
330
2C9
102
}
330
2C9
100
AcDbXrecord
280
     1
  1
DOORS
  1
*
  1
*
  1
*
 70
     0
  1
*
  1
*
  0
XRECORD
  5
37F
102
{ACAD_REACTORS
330
2C9
102
}
330
2C9
100
AcDbXrecord
280
     1
  1
DR
  1
DR*
  1
*
  1
*
 70
     0
  1
*
  1
*
  0
XRECORD
  5
380
102
{ACAD_REACTORS
330
2C9
102
}
330
2C9
100
AcDbXrecord
280
     1
  1
DT
  1
DT*
  1
*
  1
*
 70
     0
  1
*
  1
*
  0
XRECORD
  5
381
102
{ACAD_REACTORS
330
2C9
102
}
330
2C9
100
AcDbXrecord
280
     1
  1
d外構
  1
d*
  1
*
  1
*
 70
     0
  1
*
  1
*
  0
XRECORD
  5
382
102
{ACAD_REACTORS
330
2C9
102
}
330
2C9
100
AcDbXrecord
280
     1
  1
Ｄ街区低木
  1
*て*
  1
*
  1
*
 70
     0
  1
*
  1
*
  0
XRECORD
  5
383
102
{ACAD_REACTORS
330
2C9
102
}
330
2C9
100
AcDbXrecord
280
     1
  1
D割付平面
  1
*わ*
  1
*
  1
*
 70
     0
  1
*
  1
*
  0
XRECORD
  5
384
102
{ACAD_REACTORS
330
2C9
102
}
330
2C9
100
AcDbXrecord
280
     1
  1
Ｄ給水設備
  1
*ゆ*
  1
*
  1
*
 70
     0
  1
*
  1
*
  0
XRECORD
  5
385
102
{ACAD_REACTORS
330
2C9
102
}
330
2C9
100
AcDbXrecord
280
     1
  1
Ｄ計画高平面
  1
*さ*
  1
*
  1
*
 70
     0
  1
*
  1
*
  0
XRECORD
  5
386
102
{ACAD_REACTORS
330
2C9
102
}
330
2C9
100
AcDbXrecord
280
     1
  1
Ｄ計画平面
  1
*け*
  1
*
  1
*
 70
     0
  1
*
  1
*
  0
XRECORD
  5
387
102
{ACAD_REACTORS
330
2C9
102
}
330
2C9
100
AcDbXrecord
280
     1
  1
Ｄ工事区分
  1
*ぶ*
  1
*
  1
*
 70
     0
  1
*
  1
*
  0
XRECORD
  5
388
102
{ACAD_REACTORS
330
2C9
102
}
330
2C9
100
AcDbXrecord
280
     1
  1
Ｄ高木植栽
  1
*こ*
  1
*
  1
*
 70
     0
  1
*
  1
*
  0
XRECORD
  5
389
102
{ACAD_REACTORS
330
2C9
102
}
330
2C9
100
AcDbXrecord
280
     1
  1
Ｄ施設平面
  1
*し*
  1
*
  1
*
 70
     0
  1
*
  1
*
  0
XRECORD
  5
38A
102
{ACAD_REACTORS
330
2C9
102
}
330
2C9
100
AcDbXrecord
280
     1
  1
Ｄ照明設備
  1
*め*
  1
*
  1
*
 70
     0
  1
*
  1
*
  0
XRECORD
  5
38B
102
{ACAD_REACTORS
330
2C9
102
}
330
2C9
100
AcDbXrecord
280
     1
  1
Ｄ低木
  1
*て*
  1
*
  1
*
 70
     0
  1
*
  1
*
  0
XRECORD
  5
38C
102
{ACAD_REACTORS
330
2C9
102
}
330
2C9
100
AcDbXrecord
280
     1
  1
Ｄ電気設備
  1
*で*
  1
*
  1
*
 70
     0
  1
*
  1
*
  0
XRECORD
  5
38D
102
{ACAD_REACTORS
330
2C9
102
}
330
2C9
100
AcDbXrecord
280
     1
  1
Ｄ土壌改良
  1
*ど*
  1
*
  1
*
 70
     0
  1
*
  1
*
  0
XRECORD
  5
38E
102
{ACAD_REACTORS
330
2C9
102
}
330
2C9
100
AcDbXrecord
280
     1
  1
Ｄ排水平面
  1
*は*
  1
*
  1
*
 70
     0
  1
*
  1
*
  0
XRECORD
  5
38F
102
{ACAD_REACTORS
330
2C9
102
}
330
2C9
100
AcDbXrecord
280
     1
  1
D舗装平面
  1
*ほ*
  1
*
  1
*
 70
     0
  1
*
  1
*
  0
XRECORD
  5
390
102
{ACAD_REACTORS
330
2C9
102
}
330
2C9
100
AcDbXrecord
280
     1
  1
Ｄ墓地施設平面
  1
*も*
  1
*
  1
*
 70
     0
  1
*
  1
*
  0
XRECORD
  5
391
102
{ACAD_REACTORS
330
2C9
102
}
330
2C9
100
AcDbXrecord
280
     1
  1
D墓地排水
  1
*は*
  1
*
  1
*
 70
     0
  1
*
  1
*
  0
XRECORD
  5
392
102
{ACAD_REACTORS
330
2C9
102
}
330
2C9
100
AcDbXrecord
280
     1
  1
E
  1
*E-*
  1
*
  1
*
 70
     0
  1
*
  1
*
  0
XRECORD
  5
393
102
{ACAD_REACTORS
330
2C9
102
}
330
2C9
100
AcDbXrecord
280
     1
  1
E(点線系)を表示
  1
E*
  1
*
  1
*
 70
     0
  1
*
  1
*
  0
XRECORD
  5
394
102
{ACAD_REACTORS
330
2C9
102
}
330
2C9
100
AcDbXrecord
280
     1
  1
EEEE
  1
*
  1
*
  1
*
 70
  1804
  1
*
  1
*
  0
XRECORD
  5
395
102
{ACAD_REACTORS
330
2C9
102
}
330
2C9
100
AcDbXrecord
280
     1
  1
EISEI
  1
*4EISEI
  1
4
  1
*
 70
     0
  1
*
  1
*
  0
XRECORD
  5
396
102
{ACAD_REACTORS
330
2C9
102
}
330
2C9
100
AcDbXrecord
280
     1
  1
elec
  1
01_elec-tgbt
  1
*
  1
*
 70
     0
  1
*
  1
*
  0
XRECORD
  5
397
102
{ACAD_REACTORS
330
2C9
102
}
330
2C9
100
AcDbXrecord
280
     1
  1
ERAS1F
  1
*2ERAS1F
  1
*
  1
*
 70
     0
  1
*
  1
*
  0
XRECORD
  5
398
102
{ACAD_REACTORS
330
2C9
102
}
330
2C9
100
AcDbXrecord
280
     1
  1
existing
  1
afl-* 
  1
*
  1
*
 70
     0
  1
*
  1
*
  0
XRECORD
  5
399
102
{ACAD_REACTORS
330
2C9
102
}
330
2C9
100
AcDbXrecord
280
     1
  1
Exit
  1
*exit*
  1
*
  1
*
 70
     0
  1
*
  1
*
  0
XRECORD
  5
39A
102
{ACAD_REACTORS
330
2C9
102
}
330
2C9
100
AcDbXrecord
280
     1
  1
F
  1
F*
  1
*
  1
*
 70
     0
  1
*
  1
*
  0
XRECORD
  5
39B
102
{ACAD_REACTORS
330
2C9
102
}
330
2C9
100
AcDbXrecord
280
     1
  1
F(断面)を表示
  1
F*
  1
*
  1
*
 70
     0
  1
*
  1
*
  0
XRECORD
  5
39C
102
{ACAD_REACTORS
330
2C9
102
}
330
2C9
100
AcDbXrecord
280
     1
  1
F1
  1
*
  1
*
  1
*
 70
     0
  1
*
  1
*
  0
XRECORD
  5
39D
102
{ACAD_REACTORS
330
2C9
102
}
330
2C9
100
AcDbXrecord
280
     1
  1
face4
  1
*face4*
  1
*
  1
*
 70
     0
  1
*
  1
*
  0
XRECORD
  5
39E
102
{ACAD_REACTORS
330
2C9
102
}
330
2C9
100
AcDbXrecord
280
     1
  1
FC_CLADDING
  1
*FC*
  1
*
  1
*
 70
     0
  1
*
  1
*
  0
XRECORD
  5
39F
102
{ACAD_REACTORS
330
2C9
102
}
330
2C9
100
AcDbXrecord
280
     1
  1
FENCE
  1
*FENCE*
  1
*
  1
*
 70
     0
  1
*
  1
*
  0
XRECORD
  5
3A0
102
{ACAD_REACTORS
330
2C9
102
}
330
2C9
100
AcDbXrecord
280
     1
  1
FF
  1
*
  1
*
  1
*
 70
     4
  1
*
  1
*
  0
XRECORD
  5
3A1
102
{ACAD_REACTORS
330
2C9
102
}
330
2C9
100
AcDbXrecord
280
     1
  1
FH
  1
*FH*
  1
*
  1
*
 70
     0
  1
*
  1
*
  0
XRECORD
  5
3A2
102
{ACAD_REACTORS
330
2C9
102
}
330
2C9
100
AcDbXrecord
280
     1
  1
FILTER1
  1
*
  1
*
  1
*
 70
     0
  1
*
  1
*
  0
XRECORD
  5
3A3
102
{ACAD_REACTORS
330
2C9
102
}
330
2C9
100
AcDbXrecord
280
     1
  1
fini
  1
*fini*
  1
*
  1
*
 70
     0
  1
*
  1
*
  0
XRECORD
  5
3A4
102
{ACAD_REACTORS
330
2C9
102
}
330
2C9
100
AcDbXrecord
280
     1
  1
finish
  1
n-*
  1
*
  1
*
 70
     0
  1
*
  1
*
  0
XRECORD
  5
3A5
102
{ACAD_REACTORS
330
2C9
102
}
330
2C9
100
AcDbXrecord
280
     1
  1
FIRE
  1
*FIRE*
  1
*
  1
*
 70
     0
  1
*
  1
*
  0
XRECORD
  5
3A6
102
{ACAD_REACTORS
330
2C9
102
}
330
2C9
100
AcDbXrecord
280
     1
  1
fixture
  1
f-*
  1
*
  1
*
 70
     0
  1
*
  1
*
  0
XRECORD
  5
3A7
102
{ACAD_REACTORS
330
2C9
102
}
330
2C9
100
AcDbXrecord
280
     1
  1
fl
  1
*FL*
  1
*
  1
*
 70
     0
  1
*
  1
*
  0
XRECORD
  5
3A8
102
{ACAD_REACTORS
330
2C9
102
}
330
2C9
100
AcDbXrecord
280
     1
  1
Floor
  1
A-Flor*
  1
*
  1
*
 70
     0
  1
*
  1
*
  0
XRECORD
  5
3A9
102
{ACAD_REACTORS
330
2C9
102
}
330
2C9
100
AcDbXrecord
280
     1
  1
FLOOR PLAN
  1
A-FLR-*
  1
*
  1
*
 70
     0
  1
*
  1
*
  0
XRECORD
  5
3AA
102
{ACAD_REACTORS
330
2C9
102
}
330
2C9
100
AcDbXrecord
280
     1
  1
fr
  1
*
  1
*
  1
*
 70
     4
  1
*
  1
*
  0
XRECORD
  5
3AB
102
{ACAD_REACTORS
330
2C9
102
}
330
2C9
100
AcDbXrecord
280
     1
  1
freeze
  1
*
  1
*
  1
*
 70
     4
  1
*
  1
*
  0
XRECORD
  5
3AC
102
{ACAD_REACTORS
330
2C9
102
}
330
2C9
100
AcDbXrecord
280
     1
  1
FRZ
  1
*
  1
*
  1
*
 70
     4
  1
*
  1
*
  0
XRECORD
  5
3AD
102
{ACAD_REACTORS
330
2C9
102
}
330
2C9
100
AcDbXrecord
280
     1
  1
Fugou
  1
*-Fugou*
  1
*
  1
*
 70
     0
  1
*
  1
*
  0
XRECORD
  5
3AE
102
{ACAD_REACTORS
330
2C9
102
}
330
2C9
100
AcDbXrecord
280
     1
  1
FUGOU-TATEGU
  1
*FUGOU-TATEGU
  1
*
  1
*
 70
     0
  1
*
  1
*
  0
XRECORD
  5
3AF
102
{ACAD_REACTORS
330
2C9
102
}
330
2C9
100
AcDbXrecord
280
     1
  1
FUKI
  1
*FUKI
  1
*
  1
*
 70
     0
  1
*
  1
*
  0
XRECORD
  5
3B0
102
{ACAD_REACTORS
330
2C9
102
}
330
2C9
100
AcDbXrecord
280
     1
  1
FURN
  1
*F-*
  1
*
  1
*
 70
     0
  1
*
  1
*
  0
XRECORD
  5
3B1
102
{ACAD_REACTORS
330
2C9
102
}
330
2C9
100
AcDbXrecord
280
     1
  1
FURNITURE
  1
*FN*
  1
*
  1
*
 70
     0
  1
*
  1
*
  0
XRECORD
  5
3B2
102
{ACAD_REACTORS
330
2C9
102
}
330
2C9
100
AcDbXrecord
280
     1
  1
FUSE_00
  1
*
  1
*
  1
*
 70
     0
  1
*
  1
*
  0
XRECORD
  5
3B3
102
{ACAD_REACTORS
330
2C9
102
}
330
2C9
100
AcDbXrecord
280
     1
  1
G
  1
*-G*
  1
*
  1
*
 70
     0
  1
*
  1
*
  0
XRECORD
  5
3B4
102
{ACAD_REACTORS
330
2C9
102
}
330
2C9
100
AcDbXrecord
280
     1
  1
G(開口)を表示
  1
G*
  1
*
  1
*
 70
     0
  1
*
  1
*
  0
XRECORD
  5
3B5
102
{ACAD_REACTORS
330
2C9
102
}
330
2C9
100
AcDbXrecord
280
     1
  1
GAIKOU
  1
*
  1
*
  1
*
 70
     0
  1
*
  1
*
  0
XRECORD
  5
3B6
102
{ACAD_REACTORS
330
2C9
102
}
330
2C9
100
AcDbXrecord
280
     1
  1
gel
  1
*ILLUMI*
  1
*
  1
*
 70
     0
  1
*
  1
*
  0
XRECORD
  5
3B7
102
{ACAD_REACTORS
330
2C9
102
}
330
2C9
100
AcDbXrecord
280
     1
  1
gen
  1
g*,*$*
  1
*
  1
*
 70
     0
  1
*
  1
*
  0
XRECORD
  5
3B8
102
{ACAD_REACTORS
330
2C9
102
}
330
2C9
100
AcDbXrecord
280
     1
  1
gondora
  1
a-gondora*
  1
*
  1
*
 70
     0
  1
*
  1
*
  0
XRECORD
  5
3B9
102
{ACAD_REACTORS
330
2C9
102
}
330
2C9
100
AcDbXrecord
280
     1
  1
green
  1
*
  1
green
  1
*
 70
     0
  1
*
  1
*
  0
XRECORD
  5
3BA
102
{ACAD_REACTORS
330
2C9
102
}
330
2C9
100
AcDbXrecord
280
     1
  1
GRID
  1
G*
  1
*
  1
*
 70
     0
  1
*
  1
*
  0
XRECORD
  5
3BB
102
{ACAD_REACTORS
330
2C9
102
}
330
2C9
100
AcDbXrecord
280
     1
  1
gris
  1
*
  1
*
  1
*
 70
     0
  1
*
  1
*
  0
XRECORD
  5
3BC
102
{ACAD_REACTORS
330
2C9
102
}
330
2C9
100
AcDbXrecord
280
     1
  1
H
  1
00*,01*,02*,03*,05*,06*,1*,2*,3*,4*,5*,6*,8*,D*,
  1
*
  1
*
 70
     0
  1
*
  1
*
  0
XRECORD
  5
3BD
102
{ACAD_REACTORS
330
2C9
102
}
330
2C9
100
AcDbXrecord
280
     1
  1
H-
  1
H-*
  1
*
  1
*
 70
     0
  1
*
  1
*
  0
XRECORD
  5
3BE
102
{ACAD_REACTORS
330
2C9
102
}
330
2C9
100
AcDbXrecord
280
     1
  1
H-SIN
  1
*H-SIN
  1
*
  1
*
 70
     0
  1
*
  1
*
  0
XRECORD
  5
3BF
102
{ACAD_REACTORS
330
2C9
102
}
330
2C9
100
AcDbXrecord
280
     1
  1
H(見掛)を表示
  1
H*
  1
*
  1
*
 70
     0
  1
*
  1
*
  0
XRECORD
  5
3C0
102
{ACAD_REACTORS
330
2C9
102
}
330
2C9
100
AcDbXrecord
280
     1
  1
HA
  1
*HA*
  1
*
  1
*
 70
     0
  1
*
  1
*
  0
XRECORD
  5
3C1
102
{ACAD_REACTORS
330
2C9
102
}
330
2C9
100
AcDbXrecord
280
     1
  1
haikin
  1
2-*
  1
*
  1
*
 70
     0
  1
*
  1
*
  0
XRECORD
  5
3C2
102
{ACAD_REACTORS
330
2C9
102
}
330
2C9
100
AcDbXrecord
280
     1
  1
HAISEN
  1
*1,HAISEN
  1
*
  1
*
 70
     0
  1
*
  1
*
  0
XRECORD
  5
3C3
102
{ACAD_REACTORS
330
2C9
102
}
330
2C9
100
AcDbXrecord
280
     1
  1
HARI
  1
*HARI
  1
*
  1
*
 70
     0
  1
*
  1
*
  0
XRECORD
  5
3C4
102
{ACAD_REACTORS
330
2C9
102
}
330
2C9
100
AcDbXrecord
280
     1
  1
hasira
  1
*hasira*
  1
*
  1
*
 70
     0
  1
*
  1
*
  0
XRECORD
  5
3C5
102
{ACAD_REACTORS
330
2C9
102
}
330
2C9
100
AcDbXrecord
280
     1
  1
HATCH
  1
*HATCH*
  1
*
  1
*
 70
     0
  1
*
  1
*
  0
XRECORD
  5
3C6
102
{ACAD_REACTORS
330
2C9
102
}
330
2C9
100
AcDbXrecord
280
     1
  1
HCP
  1
*HCP*
  1
*
  1
*
 70
     0
  1
*
  1
*
  0
XRECORD
  5
3C7
102
{ACAD_REACTORS
330
2C9
102
}
330
2C9
100
AcDbXrecord
280
     1
  1
HEISHO
  1
4MAJ
  1
*
  1
*
 70
     0
  1
*
  1
*
  0
XRECORD
  5
3C8
102
{ACAD_REACTORS
330
2C9
102
}
330
2C9
100
AcDbXrecord
280
     1
  1
HEISHO2
  1
4MAJ,3CWD,3TAT
  1
*
  1
*
 70
     0
  1
*
  1
*
  0
XRECORD
  5
3C9
102
{ACAD_REACTORS
330
2C9
102
}
330
2C9
100
AcDbXrecord
280
     1
  1
HIDDEN
  1
*
  1
*
  1
HIDDEN
 70
     0
  1
*
  1
*
  0
XRECORD
  5
3CA
102
{ACAD_REACTORS
330
2C9
102
}
330
2C9
100
AcDbXrecord
280
     1
  1
HOJO
  1
*HOJO
  1
*
  1
*
 70
     0
  1
*
  1
*
  0
XRECORD
  5
3CB
102
{ACAD_REACTORS
330
2C9
102
}
330
2C9
100
AcDbXrecord
280
     1
  1
hollywood
  1
*
  1
*
  1
*
 70
    12
  1
*
  1
*
  0
XRECORD
  5
3CC
102
{ACAD_REACTORS
330
2C9
102
}
330
2C9
100
AcDbXrecord
280
     1
  1
HOTEL
  1
*HOT*
  1
*
  1
*
 70
     0
  1
*
  1
*
  0
XRECORD
  5
3CD
102
{ACAD_REACTORS
330
2C9
102
}
330
2C9
100
AcDbXrecord
280
     1
  1
huse
  1
0,defpoints
  1
*
  1
*
 70
     0
  1
*
  1
*
  0
XRECORD
  5
3CE
102
{ACAD_REACTORS
330
2C9
102
}
330
2C9
100
AcDbXrecord
280
     1
  1
HYOKI
  1
*HYOKI
  1
*
  1
*
 70
     0
  1
*
  1
*
  0
XRECORD
  5
3CF
102
{ACAD_REACTORS
330
2C9
102
}
330
2C9
100
AcDbXrecord
280
     1
  1
HYOUKI
  1
*
  1
*
  1
*
 70
     0
  1
*
  1
*
  0
XRECORD
  5
3D0
102
{ACAD_REACTORS
330
2C9
102
}
330
2C9
100
AcDbXrecord
280
     1
  1
i
  1
*
  1
*
  1
*
 70
     0
  1
*
  1
*
  0
XRECORD
  5
3D1
102
{ACAD_REACTORS
330
2C9
102
}
330
2C9
100
AcDbXrecord
280
     1
  1
I(二次部材系))を表示
  1
I*
  1
*
  1
*
 70
     0
  1
*
  1
*
  0
XRECORD
  5
3D2
102
{ACAD_REACTORS
330
2C9
102
}
330
2C9
100
AcDbXrecord
280
     1
  1
I2
  1
*I2CL*
  1
*
  1
*
 70
     0
  1
*
  1
*
  0
XRECORD
  5
3D3
102
{ACAD_REACTORS
330
2C9
102
}
330
2C9
100
AcDbXrecord
280
     1
  1
i2cl
  1
*i2c?*
  1
*
  1
*
 70
     0
  1
*
  1
*
  0
XRECORD
  5
3D4
102
{ACAD_REACTORS
330
2C9
102
}
330
2C9
100
AcDbXrecord
280
     1
  1
i5
  1
*i5*
  1
*
  1
*
 70
     0
  1
*
  1
*
  0
XRECORD
  5
3D5
102
{ACAD_REACTORS
330
2C9
102
}
330
2C9
100
AcDbXrecord
280
     1
  1
i9
  1
*i9*
  1
*
  1
*
 70
     0
  1
*
  1
*
  0
XRECORD
  5
3D6
102
{ACAD_REACTORS
330
2C9
102
}
330
2C9
100
AcDbXrecord
280
     1
  1
in
  1
*
  1
*
  1
*
 70
     4
  1
*
  1
*
  0
XRECORD
  5
3D7
102
{ACAD_REACTORS
330
2C9
102
}
330
2C9
100
AcDbXrecord
280
     1
  1
INSERT図
  1
*
  1
*
  1
*
 70
    12
  1
*
  1
*
  0
XRECORD
  5
3D8
102
{ACAD_REACTORS
330
2C9
102
}
330
2C9
100
AcDbXrecord
280
     1
  1
ISSUE
  1
*-ISSUE1-*
  1
*
  1
*
 70
     0
  1
*
  1
*
  0
XRECORD
  5
3D9
102
{ACAD_REACTORS
330
2C9
102
}
330
2C9
100
AcDbXrecord
280
     1
  1
J
  1
*J*
  1
*
  1
*
 70
     0
  1
*
  1
*
  0
XRECORD
  5
3DA
102
{ACAD_REACTORS
330
2C9
102
}
330
2C9
100
AcDbXrecord
280
     1
  1
K
  1
K*
  1
*
  1
*
 70
     0
  1
*
  1
*
  0
XRECORD
  5
3DB
102
{ACAD_REACTORS
330
2C9
102
}
330
2C9
100
AcDbXrecord
280
     1
  1
KABE
  1
*KABE
  1
*
  1
*
 70
     0
  1
*
  1
*
  0
XRECORD
  5
3DC
102
{ACAD_REACTORS
330
2C9
102
}
330
2C9
100
AcDbXrecord
280
     1
  1
KABESHIN
  1
*A12
  1
*
  1
*
 70
     0
  1
*
  1
*
  0
XRECORD
  5
3DD
102
{ACAD_REACTORS
330
2C9
102
}
330
2C9
100
AcDbXrecord
280
     1
  1
KAGU
  1
*KAGU*
  1
*
  1
*
 70
     0
  1
*
  1
*
  0
XRECORD
  5
3DE
102
{ACAD_REACTORS
330
2C9
102
}
330
2C9
100
AcDbXrecord
280
     1
  1
key
  1
keyplan
  1
*
  1
*
 70
     0
  1
*
  1
*
  0
XRECORD
  5
3DF
102
{ACAD_REACTORS
330
2C9
102
}
330
2C9
100
AcDbXrecord
280
     1
  1
KI
  1
KI*
  1
*
  1
*
 70
     0
  1
*
  1
*
  0
XRECORD
  5
3E0
102
{ACAD_REACTORS
330
2C9
102
}
330
2C9
100
AcDbXrecord
280
     1
  1
KIGO
  1
*KIGO*
  1
*
  1
*
 70
     0
  1
*
  1
*
  0
XRECORD
  5
3E1
102
{ACAD_REACTORS
330
2C9
102
}
330
2C9
100
AcDbXrecord
280
     1
  1
KIJUN
  1
*KIJUN
  1
*
  1
*
 70
     0
  1
*
  1
*
  0
XRECORD
  5
3E2
102
{ACAD_REACTORS
330
2C9
102
}
330
2C9
100
AcDbXrecord
280
     1
  1
kiso
  1
f1*
  1
*
  1
*
 70
     0
  1
*
  1
*
  0
XRECORD
  5
3E3
102
{ACAD_REACTORS
330
2C9
102
}
330
2C9
100
AcDbXrecord
280
     1
  1
KSIN
  1
*2KSIN
  1
21
  1
*
 70
     0
  1
*
  1
*
  0
XRECORD
  5
3E4
102
{ACAD_REACTORS
330
2C9
102
}
330
2C9
100
AcDbXrecord
280
     1
  1
kui
  1
*
  1
*
  1
*
 70
     4
  1
*
  1
*
  0
XRECORD
  5
3E5
102
{ACAD_REACTORS
330
2C9
102
}
330
2C9
100
AcDbXrecord
280
     1
  1
KUTAI
  1
*
  1
*
  1
*
 70
     0
  1
*
  1
*
  0
XRECORD
  5
3E6
102
{ACAD_REACTORS
330
2C9
102
}
330
2C9
100
AcDbXrecord
280
     1
  1
L
  1
L*
  1
*
  1
*
 70
     0
  1
*
  1
*
  0
XRECORD
  5
3E7
102
{ACAD_REACTORS
330
2C9
102
}
330
2C9
100
AcDbXrecord
280
     1
  1
LEGEND
  1
*-C-*
  1
*
  1
*
 70
     0
  1
*
  1
*
  0
XRECORD
  5
3E8
102
{ACAD_REACTORS
330
2C9
102
}
330
2C9
100
AcDbXrecord
280
     1
  1
LGS
  1
*LGS*
  1
*
  1
*
 70
     0
  1
*
  1
*
  0
XRECORD
  5
3E9
102
{ACAD_REACTORS
330
2C9
102
}
330
2C9
100
AcDbXrecord
280
     1
  1
light
  1
*light*
  1
*
  1
*
 70
     0
  1
*
  1
*
  0
XRECORD
  5
3EA
102
{ACAD_REACTORS
330
2C9
102
}
330
2C9
100
AcDbXrecord
280
     1
  1
LIST
  1
*LIST*
  1
*
  1
*
 70
     0
  1
*
  1
*
  0
XRECORD
  5
3EB
102
{ACAD_REACTORS
330
2C9
102
}
330
2C9
100
AcDbXrecord
280
     1
  1
lixo
  1
*
  1
*
  1
*
 70
  3072
  1
*
  1
*
  0
XRECORD
  5
3EC
102
{ACAD_REACTORS
330
2C9
102
}
330
2C9
100
AcDbXrecord
280
     1
  1
LOCK
  1
*
  1
*
  1
*
 70
   256
  1
*
  1
*
  0
XRECORD
  5
3ED
102
{ACAD_REACTORS
330
2C9
102
}
330
2C9
100
AcDbXrecord
280
     1
  1
LTA
  1
*
  1
*
  1
*
 70
   768
  1
*
  1
*
  0
XRECORD
  5
3EE
102
{ACAD_REACTORS
330
2C9
102
}
330
2C9
100
AcDbXrecord
280
     1
  1
Ｌ建具
  1
L*tategu*
  1
*
  1
*
 70
     0
  1
*
  1
*
  0
XRECORD
  5
3EF
102
{ACAD_REACTORS
330
2C9
102
}
330
2C9
100
AcDbXrecord
280
     1
  1
M
  1
M*
  1
*
  1
*
 70
     0
  1
*
  1
*
  0
XRECORD
  5
3F0
102
{ACAD_REACTORS
330
2C9
102
}
330
2C9
100
AcDbXrecord
280
     1
  1
MA
  1
MA*
  1
*
  1
*
 70
     0
  1
*
  1
*
  0
XRECORD
  5
3F1
102
{ACAD_REACTORS
330
2C9
102
}
330
2C9
100
AcDbXrecord
280
     1
  1
MACONNERIE
  1
*
  1
*
  1
*
 70
     0
  1
*
  1
*
  0
XRECORD
  5
3F2
102
{ACAD_REACTORS
330
2C9
102
}
330
2C9
100
AcDbXrecord
280
     1
  1
magenta
  1
*
  1
magenta
  1
*
 70
     0
  1
*
  1
*
  0
XRECORD
  5
3F3
102
{ACAD_REACTORS
330
2C9
102
}
330
2C9
100
AcDbXrecord
280
     1
  1
magenta-bleu
  1
*
  1
magenta,bleu
  1
*
 70
     0
  1
*
  1
*
  0
XRECORD
  5
3F4
102
{ACAD_REACTORS
330
2C9
102
}
330
2C9
100
AcDbXrecord
280
     1
  1
maji
  1
*A12
  1
*
  1
*
 70
     0
  1
*
  1
*
  0
XRECORD
  5
3F5
102
{ACAD_REACTORS
330
2C9
102
}
330
2C9
100
AcDbXrecord
280
     1
  1
MAJIKIRI
  1
*MAJIKIRI
  1
*
  1
*
 70
     0
  1
*
  1
*
  0
XRECORD
  5
3F6
102
{ACAD_REACTORS
330
2C9
102
}
330
2C9
100
AcDbXrecord
280
     1
  1
marco
  1
marco*
  1
*
  1
*
 70
     0
  1
*
  1
*
  0
XRECORD
  5
3F7
102
{ACAD_REACTORS
330
2C9
102
}
330
2C9
100
AcDbXrecord
280
     1
  1
MB
  1
*MB
  1
*
  1
*
 70
     0
  1
*
  1
*
  0
XRECORD
  5
3F8
102
{ACAD_REACTORS
330
2C9
102
}
330
2C9
100
AcDbXrecord
280
     1
  1
meji
  1
*MEJI
  1
*
  1
*
 70
     0
  1
*
  1
*
  0
XRECORD
  5
3F9
102
{ACAD_REACTORS
330
2C9
102
}
330
2C9
100
AcDbXrecord
280
     1
  1
merceologico
  1
mq*
  1
*
  1
*
 70
     0
  1
*
  1
*
  0
XRECORD
  5
3FA
102
{ACAD_REACTORS
330
2C9
102
}
330
2C9
100
AcDbXrecord
280
     1
  1
MILL
  1
*MILL*
  1
*
  1
*
 70
     0
  1
*
  1
*
  0
XRECORD
  5
3FB
102
{ACAD_REACTORS
330
2C9
102
}
330
2C9
100
AcDbXrecord
280
     1
  1
MILLWORK
  1
*mILL*
  1
*
  1
*
 70
     0
  1
*
  1
*
  0
XRECORD
  5
3FC
102
{ACAD_REACTORS
330
2C9
102
}
330
2C9
100
AcDbXrecord
280
     1
  1
miwa
  1
*
  1
*
  1
*
 70
     0
  1
*
  1
*
  0
XRECORD
  5
3FD
102
{ACAD_REACTORS
330
2C9
102
}
330
2C9
100
AcDbXrecord
280
     1
  1
MOJI
  1
*MOJI
  1
*
  1
*
 70
     0
  1
*
  1
*
  0
XRECORD
  5
3FE
102
{ACAD_REACTORS
330
2C9
102
}
330
2C9
100
AcDbXrecord
280
     1
  1
MOJI100
  1
*5MOJI100
  1
3
  1
*
 70
     0
  1
*
  1
*
  0
XRECORD
  5
3FF
102
{ACAD_REACTORS
330
2C9
102
}
330
2C9
100
AcDbXrecord
280
     1
  1
N
  1
*N*
  1
*
  1
*
 70
     0
  1
*
  1
*
  0
XRECORD
  5
400
102
{ACAD_REACTORS
330
2C9
102
}
330
2C9
100
AcDbXrecord
280
     1
  1
N-
  1
N-*
  1
*
  1
*
 70
     0
  1
*
  1
*
  0
XRECORD
  5
401
102
{ACAD_REACTORS
330
2C9
102
}
330
2C9
100
AcDbXrecord
280
     1
  1
NAM
  1
*NAM*
  1
*
  1
*
 70
     0
  1
*
  1
*
  0
XRECORD
  5
402
102
{ACAD_REACTORS
330
2C9
102
}
330
2C9
100
AcDbXrecord
280
     1
  1
NEW
  1
*NEW*
  1
*
  1
*
 70
     0
  1
*
  1
*
  0
XRECORD
  5
403
102
{ACAD_REACTORS
330
2C9
102
}
330
2C9
100
AcDbXrecord
280
     1
  1
NHK
  1
N*
  1
*
  1
*
 70
     0
  1
*
  1
*
  0
XRECORD
  5
404
102
{ACAD_REACTORS
330
2C9
102
}
330
2C9
100
AcDbXrecord
280
     1
  1
no xref
  1
~*|*
  1
*
  1
*
 70
     0
  1
*
  1
*
  0
XRECORD
  5
405
102
{ACAD_REACTORS
330
2C9
102
}
330
2C9
100
AcDbXrecord
280
     1
  1
note
  1
tca-6f|*note*
  1
*
  1
*
 70
     0
  1
*
  1
*
  0
XRECORD
  5
406
102
{ACAD_REACTORS
330
2C9
102
}
330
2C9
100
AcDbXrecord
280
     1
  1
NUM
  1
*NUM*
  1
*
  1
*
 70
     0
  1
*
  1
*
  0
XRECORD
  5
407
102
{ACAD_REACTORS
330
2C9
102
}
330
2C9
100
AcDbXrecord
280
     1
  1
NUMB
  1
*NUM*
  1
*
  1
*
 70
     0
  1
*
  1
*
  0
XRECORD
  5
408
102
{ACAD_REACTORS
330
2C9
102
}
330
2C9
100
AcDbXrecord
280
     1
  1
O
  1
*O*
  1
*
  1
*
 70
     0
  1
*
  1
*
  0
XRECORD
  5
409
102
{ACAD_REACTORS
330
2C9
102
}
330
2C9
100
AcDbXrecord
280
     1
  1
OF
  1
*
  1
*
  1
*
 70
     3
  1
*
  1
*
  0
XRECORD
  5
40A
102
{ACAD_REACTORS
330
2C9
102
}
330
2C9
100
AcDbXrecord
280
     1
  1
OFF
  1
*
  1
*
  1
*
 70
     3
  1
*
  1
*
  0
XRECORD
  5
40B
102
{ACAD_REACTORS
330
2C9
102
}
330
2C9
100
AcDbXrecord
280
     1
  1
on
  1
*
  1
*
  1
*
 70
    13
  1
*
  1
*
  0
XRECORD
  5
40C
102
{ACAD_REACTORS
330
2C9
102
}
330
2C9
100
AcDbXrecord
280
     1
  1
option 1
  1
1*
  1
*
  1
*
 70
     0
  1
*
  1
*
  0
XRECORD
  5
40D
102
{ACAD_REACTORS
330
2C9
102
}
330
2C9
100
AcDbXrecord
280
     1
  1
option 2
  1
2*
  1
*
  1
*
 70
     0
  1
*
  1
*
  0
XRECORD
  5
40E
102
{ACAD_REACTORS
330
2C9
102
}
330
2C9
100
AcDbXrecord
280
     1
  1
OUTLINE
  1
T_*|OUTLINE
  1
*
  1
*
 70
     0
  1
*
  1
*
  0
XRECORD
  5
40F
102
{ACAD_REACTORS
330
2C9
102
}
330
2C9
100
AcDbXrecord
280
     1
  1
P
  1
*-P*
  1
*
  1
*
 70
     0
  1
*
  1
*
  0
XRECORD
  5
410
102
{ACAD_REACTORS
330
2C9
102
}
330
2C9
100
AcDbXrecord
280
     1
  1
pa
  1
*pa*
  1
*
  1
*
 70
     0
  1
*
  1
*
  0
XRECORD
  5
411
102
{ACAD_REACTORS
330
2C9
102
}
330
2C9
100
AcDbXrecord
280
     1
  1
PALFOND
  1
*
  1
*
  1
*
 70
    13
  1
*
  1
*
  0
XRECORD
  5
412
102
{ACAD_REACTORS
330
2C9
102
}
330
2C9
100
AcDbXrecord
280
     1
  1
PAT
  1
*PAT*
  1
*
  1
*
 70
     0
  1
*
  1
*
  0
XRECORD
  5
413
102
{ACAD_REACTORS
330
2C9
102
}
330
2C9
100
AcDbXrecord
280
     1
  1
PC
  1
PC*
  1
*
  1
*
 70
     0
  1
*
  1
*
  0
XRECORD
  5
414
102
{ACAD_REACTORS
330
2C9
102
}
330
2C9
100
AcDbXrecord
280
     1
  1
PISO
  1
*PISO
  1
*
  1
*
 70
     0
  1
*
  1
*
  0
XRECORD
  5
415
102
{ACAD_REACTORS
330
2C9
102
}
330
2C9
100
AcDbXrecord
280
     1
  1
PLAN
  1
A*,B*,SITE*
  1
*
  1
*
 70
     0
  1
*
  1
*
  0
XRECORD
  5
416
102
{ACAD_REACTORS
330
2C9
102
}
330
2C9
100
AcDbXrecord
280
     1
  1
PLMB
  1
*PLMB*
  1
*
  1
*
 70
     0
  1
*
  1
*
  0
XRECORD
  5
417
102
{ACAD_REACTORS
330
2C9
102
}
330
2C9
100
AcDbXrecord
280
     1
  1
plot
  1
*
  1
*
  1
*
 70
     1
  1
*
  1
*
  0
XRECORD
  5
418
102
{ACAD_REACTORS
330
2C9
102
}
330
2C9
100
AcDbXrecord
280
     1
  1
PLUMB
  1
*PLUMB*
  1
*
  1
*
 70
     0
  1
*
  1
*
  0
XRECORD
  5
419
102
{ACAD_REACTORS
330
2C9
102
}
330
2C9
100
AcDbXrecord
280
     1
  1
PNL
  1
*PNL*
  1
*
  1
*
 70
     0
  1
*
  1
*
  0
XRECORD
  5
41A
102
{ACAD_REACTORS
330
2C9
102
}
330
2C9
100
AcDbXrecord
280
     1
  1
power
  1
p-*
  1
*
  1
*
 70
     0
  1
*
  1
*
  0
XRECORD
  5
41B
102
{ACAD_REACTORS
330
2C9
102
}
330
2C9
100
AcDbXrecord
280
     1
  1
PRT
  1
*PRT*
  1
*
  1
*
 70
     0
  1
*
  1
*
  0
XRECORD
  5
41C
102
{ACAD_REACTORS
330
2C9
102
}
330
2C9
100
AcDbXrecord
280
     1
  1
q
  1
*
  1
*
  1
*
 70
     4
  1
*
  1
*
  0
XRECORD
  5
41D
102
{ACAD_REACTORS
330
2C9
102
}
330
2C9
100
AcDbXrecord
280
     1
  1
R
  1
R*
  1
*
  1
*
 70
     0
  1
*
  1
*
  0
XRECORD
  5
41E
102
{ACAD_REACTORS
330
2C9
102
}
330
2C9
100
AcDbXrecord
280
     1
  1
rack
  1
*rack*
  1
*
  1
*
 70
     0
  1
*
  1
*
  0
XRECORD
  5
41F
102
{ACAD_REACTORS
330
2C9
102
}
330
2C9
100
AcDbXrecord
280
     1
  1
RC
  1
*RC
  1
*
  1
*
 70
     0
  1
*
  1
*
  0
XRECORD
  5
420
102
{ACAD_REACTORS
330
2C9
102
}
330
2C9
100
AcDbXrecord
280
     1
  1
RCP
  1
A*,C*
  1
*
  1
*
 70
     0
  1
*
  1
*
  0
XRECORD
  5
421
102
{ACAD_REACTORS
330
2C9
102
}
330
2C9
100
AcDbXrecord
280
     1
  1
rm
  1
*r*
  1
*
  1
*
 70
     0
  1
*
  1
*
  0
XRECORD
  5
422
102
{ACAD_REACTORS
330
2C9
102
}
330
2C9
100
AcDbXrecord
280
     1
  1
RMTAGS
  1
R*
  1
*
  1
*
 70
     0
  1
*
  1
*
  0
XRECORD
  5
423
102
{ACAD_REACTORS
330
2C9
102
}
330
2C9
100
AcDbXrecord
280
     1
  1
RNUM
  1
*NUM*
  1
*
  1
*
 70
     0
  1
*
  1
*
  0
XRECORD
  5
424
102
{ACAD_REACTORS
330
2C9
102
}
330
2C9
100
AcDbXrecord
280
     1
  1
ROOM
  1
*RM*
  1
*
  1
*
 70
     0
  1
*
  1
*
  0
XRECORD
  5
425
102
{ACAD_REACTORS
330
2C9
102
}
330
2C9
100
AcDbXrecord
280
     1
  1
roomno
  1
*num*
  1
*
  1
*
 70
     0
  1
*
  1
*
  0
XRECORD
  5
426
102
{ACAD_REACTORS
330
2C9
102
}
330
2C9
100
AcDbXrecord
280
     1
  1
rouge
  1
*
  1
1
  1
*
 70
     1
  1
*
  1
*
  0
XRECORD
  5
427
102
{ACAD_REACTORS
330
2C9
102
}
330
2C9
100
AcDbXrecord
280
     1
  1
rtkl
  1
*rtkl*
  1
*
  1
*
 70
     0
  1
*
  1
*
  0
XRECORD
  5
428
102
{ACAD_REACTORS
330
2C9
102
}
330
2C9
100
AcDbXrecord
280
     1
  1
S
  1
0,05*,11*,12*,13*,14*,20*,21*,22*,55*,56*,
  1
*
  1
*
 70
     0
  1
*
  1
*
  0
XRECORD
  5
429
102
{ACAD_REACTORS
330
2C9
102
}
330
2C9
100
AcDbXrecord
280
     1
  1
saciencewold
  1
*
  1
*
  1
*
 70
     0
  1
*
  1
*
  0
XRECORD
  5
42A
102
{ACAD_REACTORS
330
2C9
102
}
330
2C9
100
AcDbXrecord
280
     1
  1
SETUBI
  1
*SETUBI
  1
*
  1
*
 70
     0
  1
*
  1
*
  0
XRECORD
  5
42B
102
{ACAD_REACTORS
330
2C9
102
}
330
2C9
100
AcDbXrecord
280
     1
  1
SHITU
  1
*SHITUMEI*
  1
*
  1
*
 70
     0
  1
*
  1
*
  0
XRECORD
  5
42C
102
{ACAD_REACTORS
330
2C9
102
}
330
2C9
100
AcDbXrecord
280
     1
  1
SHITUMEI
  1
*SHITUMEI2
  1
*
  1
*
 70
     0
  1
*
  1
*
  0
XRECORD
  5
42D
102
{ACAD_REACTORS
330
2C9
102
}
330
2C9
100
AcDbXrecord
280
     1
  1
SIAG
  1
*3SIAG
  1
*
  1
*
 70
     0
  1
*
  1
*
  0
XRECORD
  5
42E
102
{ACAD_REACTORS
330
2C9
102
}
330
2C9
100
AcDbXrecord
280
     1
  1
SIAG-N
  1
*3SIAG-N
  1
7
  1
*
 70
     0
  1
*
  1
*
  0
XRECORD
  5
42F
102
{ACAD_REACTORS
330
2C9
102
}
330
2C9
100
AcDbXrecord
280
     1
  1
SIAG3
  1
*3SIAG3
  1
3
  1
*
 70
     0
  1
*
  1
*
  0
XRECORD
  5
430
102
{ACAD_REACTORS
330
2C9
102
}
330
2C9
100
AcDbXrecord
280
     1
  1
sin
  1
*SIN*
  1
*
  1
*
 70
     0
  1
*
  1
*
  0
XRECORD
  5
431
102
{ACAD_REACTORS
330
2C9
102
}
330
2C9
100
AcDbXrecord
280
     1
  1
Sinm
  1
*-Sinm*
  1
*
  1
*
 70
     0
  1
*
  1
*
  0
XRECORD
  5
432
102
{ACAD_REACTORS
330
2C9
102
}
330
2C9
100
AcDbXrecord
280
     1
  1
SITA
  1
*3SITA
  1
*
  1
*
 70
     0
  1
*
  1
*
  0
XRECORD
  5
433
102
{ACAD_REACTORS
330
2C9
102
}
330
2C9
100
AcDbXrecord
280
     1
  1
siyah
  1
*
  1
*
  1
*
 70
     4
  1
*
  1
siyah
  0
XRECORD
  5
434
102
{ACAD_REACTORS
330
2C9
102
}
330
2C9
100
AcDbXrecord
280
     1
  1
SS
  1
*SS*
  1
*
  1
*
 70
     0
  1
*
  1
*
  0
XRECORD
  5
435
102
{ACAD_REACTORS
330
2C9
102
}
330
2C9
100
AcDbXrecord
280
     1
  1
ST
  1
*ST*
  1
*
  1
*
 70
     0
  1
*
  1
*
  0
XRECORD
  5
436
102
{ACAD_REACTORS
330
2C9
102
}
330
2C9
100
AcDbXrecord
280
     1
  1
STA
  1
STA*
  1
*
  1
*
 70
     0
  1
*
  1
*
  0
XRECORD
  5
437
102
{ACAD_REACTORS
330
2C9
102
}
330
2C9
100
AcDbXrecord
280
     1
  1
stairs
  1
*sta*
  1
*
  1
*
 70
     0
  1
*
  1
*
  0
XRECORD
  5
438
102
{ACAD_REACTORS
330
2C9
102
}
330
2C9
100
AcDbXrecord
280
     1
  1
SUGA5
  1
*4SUGA5
  1
5
  1
*
 70
     0
  1
*
  1
*
  0
XRECORD
  5
439
102
{ACAD_REACTORS
330
2C9
102
}
330
2C9
100
AcDbXrecord
280
     1
  1
SUNP
  1
*5SUNP100
  1
1
  1
*
 70
     0
  1
*
  1
*
  0
XRECORD
  5
43A
102
{ACAD_REACTORS
330
2C9
102
}
330
2C9
100
AcDbXrecord
280
     1
  1
SUNP100
  1
*5SUNP100
  1
*
  1
*
 70
     0
  1
*
  1
*
  0
XRECORD
  5
43B
102
{ACAD_REACTORS
330
2C9
102
}
330
2C9
100
AcDbXrecord
280
     1
  1
T
  1
T*
  1
*
  1
*
 70
     0
  1
*
  1
*
  0
XRECORD
  5
43C
102
{ACAD_REACTORS
330
2C9
102
}
330
2C9
100
AcDbXrecord
280
     1
  1
TAKASA
  1
*
  1
2
  1
*
 70
     0
  1
*
  1
*
  0
XRECORD
  5
43D
102
{ACAD_REACTORS
330
2C9
102
}
330
2C9
100
AcDbXrecord
280
     1
  1
TATE161
  1
*4TATE161
  1
161
  1
*
 70
     0
  1
*
  1
*
  0
XRECORD
  5
43E
102
{ACAD_REACTORS
330
2C9
102
}
330
2C9
100
AcDbXrecord
280
     1
  1
TATEGU
  1
*TATEGU
  1
*
  1
*
 70
     0
  1
*
  1
*
  0
XRECORD
  5
43F
102
{ACAD_REACTORS
330
2C9
102
}
330
2C9
100
AcDbXrecord
280
     1
  1
ten
  1
*ten*
  1
*
  1
*
 70
     0
  1
*
  1
*
  0
XRECORD
  5
440
102
{ACAD_REACTORS
330
2C9
102
}
330
2C9
100
AcDbXrecord
280
     1
  1
TENJYOU
  1
C-*
  1
*
  1
*
 70
     0
  1
*
  1
*
  0
XRECORD
  5
441
102
{ACAD_REACTORS
330
2C9
102
}
330
2C9
100
AcDbXrecord
280
     1
  1
TENJYOUNAI
  1
CI-*
  1
*
  1
*
 70
     0
  1
*
  1
*
  0
XRECORD
  5
442
102
{ACAD_REACTORS
330
2C9
102
}
330
2C9
100
AcDbXrecord
280
     1
  1
test
  1
keyplan
  1
*
  1
*
 70
     0
  1
*
  1
*
  0
XRECORD
  5
443
102
{ACAD_REACTORS
330
2C9
102
}
330
2C9
100
AcDbXrecord
280
     1
  1
text
  1
*text*
  1
*
  1
*
 70
     0
  1
*
  1
*
  0
XRECORD
  5
444
102
{ACAD_REACTORS
330
2C9
102
}
330
2C9
100
AcDbXrecord
280
     1
  1
thaw
  1
*
  1
*
  1
*
 70
    12
  1
*
  1
*
  0
XRECORD
  5
445
102
{ACAD_REACTORS
330
2C9
102
}
330
2C9
100
AcDbXrecord
280
     1
  1
TITL
  1
*8TITL
  1
4
  1
*
 70
     0
  1
*
  1
*
  0
XRECORD
  5
446
102
{ACAD_REACTORS
330
2C9
102
}
330
2C9
100
AcDbXrecord
280
     1
  1
tnjyou
  1
c-*
  1
*
  1
*
 70
     0
  1
*
  1
*
  0
XRECORD
  5
447
102
{ACAD_REACTORS
330
2C9
102
}
330
2C9
100
AcDbXrecord
280
     1
  1
tori
  1
*A11
  1
*
  1
*
 70
     0
  1
*
  1
*
  0
XRECORD
  5
448
102
{ACAD_REACTORS
330
2C9
102
}
330
2C9
100
AcDbXrecord
280
     1
  1
TORISHIN
  1
*A11
  1
*
  1
*
 70
     0
  1
*
  1
*
  0
XRECORD
  5
449
102
{ACAD_REACTORS
330
2C9
102
}
330
2C9
100
AcDbXrecord
280
     1
  1
tr
  1
*tr*
  1
*
  1
*
 70
     0
  1
*
  1
*
  0
XRECORD
  5
44A
102
{ACAD_REACTORS
330
2C9
102
}
330
2C9
100
AcDbXrecord
280
     1
  1
TSIN
  1
*2TSIN
  1
*
  1
*
 70
     0
  1
*
  1
*
  0
XRECORD
  5
44B
102
{ACAD_REACTORS
330
2C9
102
}
330
2C9
100
AcDbXrecord
280
     1
  1
TXT
  1
*TX*
  1
*
  1
*
 70
     0
  1
*
  1
*
  0
XRECORD
  5
44C
102
{ACAD_REACTORS
330
2C9
102
}
330
2C9
100
AcDbXrecord
280
     1
  1
UNFREEZ
  1
*
  1
*
  1
*
 70
    12
  1
*
  1
*
  0
XRECORD
  5
44D
102
{ACAD_REACTORS
330
2C9
102
}
330
2C9
100
AcDbXrecord
280
     1
  1
UNROCK
  1
*
  1
*
  1
*
 70
   768
  1
*
  1
*
  0
XRECORD
  5
44E
102
{ACAD_REACTORS
330
2C9
102
}
330
2C9
100
AcDbXrecord
280
     1
  1
wada
  1
*
  1
*
  1
*
 70
     0
  1
*
  1
*
  0
XRECORD
  5
44F
102
{ACAD_REACTORS
330
2C9
102
}
330
2C9
100
AcDbXrecord
280
     1
  1
waku
  1
waku
  1
*
  1
*
 70
     0
  1
*
  1
*
  0
XRECORD
  5
450
102
{ACAD_REACTORS
330
2C9
102
}
330
2C9
100
AcDbXrecord
280
     1
  1
X
  1
*$*$*
  1
*
  1
*
 70
     0
  1
*
  1
*
  0
XRECORD
  5
451
102
{ACAD_REACTORS
330
2C9
102
}
330
2C9
100
AcDbXrecord
280
     1
  1
X(敷地)を表示
  1
X*
  1
*
  1
*
 70
     0
  1
*
  1
*
  0
XRECORD
  5
452
102
{ACAD_REACTORS
330
2C9
102
}
330
2C9
100
AcDbXrecord
280
     1
  1
xref
  1
ground*
  1
*
  1
*
 70
     0
  1
*
  1
*
  0
XRECORD
  5
453
102
{ACAD_REACTORS
330
2C9
102
}
330
2C9
100
AcDbXrecord
280
     1
  1
YAJI
  1
*YAJI*
  1
*
  1
*
 70
     0
  1
*
  1
*
  0
XRECORD
  5
454
102
{ACAD_REACTORS
330
2C9
102
}
330
2C9
100
AcDbXrecord
280
     1
  1
yellow
  1
*
  1
yellow
  1
*
 70
     0
  1
*
  1
*
  0
XRECORD
  5
455
102
{ACAD_REACTORS
330
2C9
102
}
330
2C9
100
AcDbXrecord
280
     1
  1
YUKA
  1
F-*
  1
*
  1
*
 70
     0
  1
*
  1
*
  0
XRECORD
  5
456
102
{ACAD_REACTORS
330
2C9
102
}
330
2C9
100
AcDbXrecord
280
     1
  1
yその他
  1
y*
  1
*
  1
*
 70
     0
  1
*
  1
*
  0
XRECORD
  5
457
102
{ACAD_REACTORS
330
2C9
102
}
330
2C9
100
AcDbXrecord
280
     1
  1
Z
  1
Z*
  1
*
  1
*
 70
     0
  1
*
  1
*
  0
XRECORD
  5
458
102
{ACAD_REACTORS
330
2C9
102
}
330
2C9
100
AcDbXrecord
280
     1
  1
ZATU
  1
*ZATU
  1
*
  1
*
 70
     0
  1
*
  1
*
  0
XRECORD
  5
459
102
{ACAD_REACTORS
330
2C9
102
}
330
2C9
100
AcDbXrecord
280
     1
  1
z図枠
  1
z*
  1
*
  1
*
 70
     0
  1
*
  1
*
  0
XRECORD
  5
45A
102
{ACAD_REACTORS
330
2C9
102
}
330
2C9
100
AcDbXrecord
280
     1
  1
к
  1
к-*
  1
*
  1
*
 70
     0
  1
*
  1
*
  0
XRECORD
  5
45B
102
{ACAD_REACTORS
330
2C9
102
}
330
2C9
100
AcDbXrecord
280
     1
  1
перегородки
  1
*перегород*
  1
*
  1
*
 70
     0
  1
*
  1
*
  0
XRECORD
  5
45C
102
{ACAD_REACTORS
330
2C9
102
}
330
2C9
100
AcDbXrecord
280
     1
  1
イベント給水
  1
*い*
  1
*
  1
*
 70
     0
  1
*
  1
*
  0
XRECORD
  5
45D
102
{ACAD_REACTORS
330
2C9
102
}
330
2C9
100
AcDbXrecord
280
     1
  1
ガラス
  1
*HMOJI
  1
*
  1
*
 70
     0
  1
*
  1
*
  0
XRECORD
  5
45E
102
{ACAD_REACTORS
330
2C9
102
}
330
2C9
100
AcDbXrecord
280
     1
  1
キ-プラン
  1
*HMOJI,*HOJO2,*HOJO4,*SINSEI
  1
*
  1
*
 70
     0
  1
*
  1
*
  0
XRECORD
  5
45F
102
{ACAD_REACTORS
330
2C9
102
}
330
2C9
100
AcDbXrecord
280
     1
  1
キープラン
  1
キープラン*
  1
*
  1
*
 70
     0
  1
*
  1
*
  0
XRECORD
  5
460
102
{ACAD_REACTORS
330
2C9
102
}
330
2C9
100
AcDbXrecord
280
     1
  1
さーくる
  1
*
  1
*
  1
*
 70
     0
  1
*
  1
*
  0
XRECORD
  5
461
102
{ACAD_REACTORS
330
2C9
102
}
330
2C9
100
AcDbXrecord
280
     1
  1
シェルター
  1
シェルター*
  1
*
  1
*
 70
     0
  1
*
  1
*
  0
XRECORD
  5
462
102
{ACAD_REACTORS
330
2C9
102
}
330
2C9
100
AcDbXrecord
280
     1
  1
すべてに反映
  1
*す*
  1
*
  1
*
 70
     0
  1
*
  1
*
  0
XRECORD
  5
463
102
{ACAD_REACTORS
330
2C9
102
}
330
2C9
100
AcDbXrecord
280
     1
  1
スロープ
  1
SL*
  1
*
  1
*
 70
     0
  1
*
  1
*
  0
XRECORD
  5
464
102
{ACAD_REACTORS
330
2C9
102
}
330
2C9
100
AcDbXrecord
280
     1
  1
タイル割付平面図
  1
タイル*
  1
*
  1
*
 70
     0
  1
*
  1
*
  0
XRECORD
  5
465
102
{ACAD_REACTORS
330
2C9
102
}
330
2C9
100
AcDbXrecord
280
     1
  1
ﾃｷｽﾄのみ表示
  1
*NZ5-TEXT
  1
*
  1
*
 70
     0
  1
*
  1
*
  0
XRECORD
  5
466
102
{ACAD_REACTORS
330
2C9
102
}
330
2C9
100
AcDbXrecord
280
     1
  1
ハッチング
  1
*ハッチング
  1
*
  1
*
 70
     0
  1
*
  1
*
  0
XRECORD
  5
467
102
{ACAD_REACTORS
330
2C9
102
}
330
2C9
100
AcDbXrecord
280
     1
  1
フリーズ
  1
*
  1
*
  1
*
 70
     4
  1
*
  1
*
  0
XRECORD
  5
468
102
{ACAD_REACTORS
330
2C9
102
}
330
2C9
100
AcDbXrecord
280
     1
  1
フリーズof
  1
*
  1
*
  1
*
 70
    12
  1
*
  1
*
  0
XRECORD
  5
469
102
{ACAD_REACTORS
330
2C9
102
}
330
2C9
100
AcDbXrecord
280
     1
  1
ﾌﾘｰｽﾞ画層非表示
  1
*
  1
*
  1
*
 70
    12
  1
*
  1
*
  0
XRECORD
  5
46A
102
{ACAD_REACTORS
330
2C9
102
}
330
2C9
100
AcDbXrecord
280
     1
  1
ﾌﾘｰｽﾞ画面非表示
  1
*
  1
*
  1
*
 70
    12
  1
*
  1
*
  0
XRECORD
  5
46B
102
{ACAD_REACTORS
330
2C9
102
}
330
2C9
100
AcDbXrecord
280
     1
  1
ﾌﾘｰｽﾞ解除
  1
*
  1
*
  1
*
 70
    12
  1
*
  1
*
  0
XRECORD
  5
46C
102
{ACAD_REACTORS
330
2C9
102
}
330
2C9
100
AcDbXrecord
280
     1
  1
フリーズ解除
  1
*
  1
*
  1
*
 70
    12
  1
*
  1
*
  0
XRECORD
  5
46D
102
{ACAD_REACTORS
330
2C9
102
}
330
2C9
100
AcDbXrecord
280
     1
  1
ﾌﾟﾚｾﾞﾝ枠
  1
*|ﾌﾟﾚｾﾞﾝ枠
  1
*
  1
*
 70
     0
  1
*
  1
*
  0
XRECORD
  5
46E
102
{ACAD_REACTORS
330
2C9
102
}
330
2C9
100
AcDbXrecord
280
     1
  1
マーク
  1
*マーク
  1
*
  1
*
 70
     0
  1
*
  1
*
  0
XRECORD
  5
46F
102
{ACAD_REACTORS
330
2C9
102
}
330
2C9
100
AcDbXrecord
280
     1
  1
ﾒｲﾝﾌﾟﾗｻﾞ
  1
*め*
  1
*
  1
*
 70
     0
  1
*
  1
*
  0
XRECORD
  5
470
102
{ACAD_REACTORS
330
2C9
102
}
330
2C9
100
AcDbXrecord
280
     1
  1
レベル
  1
*た*
  1
*
  1
*
 70
     0
  1
*
  1
*
  0
XRECORD
  5
471
102
{ACAD_REACTORS
330
2C9
102
}
330
2C9
100
AcDbXrecord
280
     1
  1
ロック
  1
*
  1
*
  1
*
 70
   256
  1
*
  1
*
  0
XRECORD
  5
472
102
{ACAD_REACTORS
330
2C9
102
}
330
2C9
100
AcDbXrecord
280
     1
  1
一括非表示
  1
*
  1
*
  1
*
 70
     3
  1
*
  1
*
  0
XRECORD
  5
473
102
{ACAD_REACTORS
330
2C9
102
}
330
2C9
100
AcDbXrecord
280
     1
  1
一般図
  1
hatch
  1
*
  1
*
 70
     7
  1
*
  1
*
  0
XRECORD
  5
474
102
{ACAD_REACTORS
330
2C9
102
}
330
2C9
100
AcDbXrecord
280
     1
  1
印刷
  1
*
  1
*
  1
*
 70
    13
  1
*
  1
*
  0
XRECORD
  5
475
102
{ACAD_REACTORS
330
2C9
102
}
330
2C9
100
AcDbXrecord
280
     1
  1
荏原機器
  1
KIKI*
  1
*
  1
*
 70
     0
  1
*
  1
*
  0
XRECORD
  5
476
102
{ACAD_REACTORS
330
2C9
102
}
330
2C9
100
AcDbXrecord
280
     1
  1
荏原機器基礎
  1
a3*,KIKI*,text*,stage,矢視記号
  1
*
  1
*
 70
     0
  1
*
  1
*
  0
XRECORD
  5
477
102
{ACAD_REACTORS
330
2C9
102
}
330
2C9
100
AcDbXrecord
280
     1
  1
衛生設備図
  1
001*,002*,004*,005*,007*,010*,039*,040*,041*,042*,043*
  1
*
  1
*
 70
     0
  1
*
  1
*
  0
XRECORD
  5
478
102
{ACAD_REACTORS
330
2C9
102
}
330
2C9
100
AcDbXrecord
280
     1
  1
黄色
  1
*
  1
YELLOW
  1
*
 70
     0
  1
*
  1
*
  0
XRECORD
  5
479
102
{ACAD_REACTORS
330
2C9
102
}
330
2C9
100
AcDbXrecord
280
     1
  1
下階
  1
下階*
  1
*
  1
*
 70
     0
  1
*
  1
*
  0
XRECORD
  5
47A
102
{ACAD_REACTORS
330
2C9
102
}
330
2C9
100
AcDbXrecord
280
     1
  1
下地
  1
*-下
  1
*
  1
*
 70
     0
  1
*
  1
*
  0
XRECORD
  5
47B
102
{ACAD_REACTORS
330
2C9
102
}
330
2C9
100
AcDbXrecord
280
     1
  1
外構
  1
外構*
  1
*
  1
*
 70
     0
  1
*
  1
*
  0
XRECORD
  5
47C
102
{ACAD_REACTORS
330
2C9
102
}
330
2C9
100
AcDbXrecord
280
     1
  1
外部参照－建築
  1
A*
  1
9
  1
*
 70
     0
  1
*
  1
*
  0
XRECORD
  5
47D
102
{ACAD_REACTORS
330
2C9
102
}
330
2C9
100
AcDbXrecord
280
     1
  1
外部参照除く
  1
A*
  1
*
  1
*
 70
     0
  1
*
  1
*
  0
XRECORD
  5
47E
102
{ACAD_REACTORS
330
2C9
102
}
330
2C9
100
AcDbXrecord
280
     1
  1
割り付け平面図
  1
*わ*
  1
*
  1
*
 70
     0
  1
*
  1
*
  0
XRECORD
  5
47F
102
{ACAD_REACTORS
330
2C9
102
}
330
2C9
100
AcDbXrecord
280
     1
  1
割付平面図
  1
*わ*
  1
*
  1
*
 70
     0
  1
*
  1
*
  0
XRECORD
  5
480
102
{ACAD_REACTORS
330
2C9
102
}
330
2C9
100
AcDbXrecord
280
     1
  1
潅水平面
  1
*か*
  1
*
  1
*
 70
     0
  1
*
  1
*
  0
XRECORD
  5
481
102
{ACAD_REACTORS
330
2C9
102
}
330
2C9
100
AcDbXrecord
280
     1
  1
基
  1
*_基
  1
*
  1
*
 70
     0
  1
*
  1
*
  0
XRECORD
  5
482
102
{ACAD_REACTORS
330
2C9
102
}
330
2C9
100
AcDbXrecord
280
     1
  1
基準
  1
基*
  1
*
  1
*
 70
     0
  1
*
  1
*
  0
XRECORD
  5
483
102
{ACAD_REACTORS
330
2C9
102
}
330
2C9
100
AcDbXrecord
280
     1
  1
基準階
  1
*基準*
  1
*
  1
*
 70
     0
  1
*
  1
*
  0
XRECORD
  5
484
102
{ACAD_REACTORS
330
2C9
102
}
330
2C9
100
AcDbXrecord
280
     1
  1
基礎OFF
  1
+*
  1
*
  1
*
 70
     0
  1
*
  1
*
  0
XRECORD
  5
485
102
{ACAD_REACTORS
330
2C9
102
}
330
2C9
100
AcDbXrecord
280
     1
  1
基礎伏
  1
*
  1
*
  1
*
 70
     0
  1
*
  1
*
  0
XRECORD
  5
486
102
{ACAD_REACTORS
330
2C9
102
}
330
2C9
100
AcDbXrecord
280
     1
  1
基礎伏図
  1
SIZE,HOJO,ZATU,HATCH,GL-HARI,GL-HASIRA,KISO,KUI,MOJI-K1,GL-FUGO,SUNPO-K1,SUNPO,SUNPO2,SUNPO1,KIJUN3,KIJUN,SIZE
  1
*
  1
*
 70
     0
  1
*
  1
*
  0
XRECORD
  5
487
102
{ACAD_REACTORS
330
2C9
102
}
330
2C9
100
AcDbXrecord
280
     1
  1
基盤改良平面図
  1
*き*
  1
*
  1
*
 70
     0
  1
*
  1
*
  0
XRECORD
  5
488
102
{ACAD_REACTORS
330
2C9
102
}
330
2C9
100
AcDbXrecord
280
     1
  1
既存杭
  1
既存杭*
  1
*
  1
*
 70
     0
  1
*
  1
*
  0
XRECORD
  5
489
102
{ACAD_REACTORS
330
2C9
102
}
330
2C9
100
AcDbXrecord
280
     1
  1
機器
  1
KIKI*
  1
*
  1
*
 70
     0
  1
*
  1
*
  0
XRECORD
  5
48A
102
{ACAD_REACTORS
330
2C9
102
}
330
2C9
100
AcDbXrecord
280
     1
  1
機器基礎
  1
a3*,KIKI*,text*,stage,矢視記号
  1
*
  1
*
 70
     0
  1
*
  1
*
  0
XRECORD
  5
48B
102
{ACAD_REACTORS
330
2C9
102
}
330
2C9
100
AcDbXrecord
280
     1
  1
記号
  1
*記号
  1
*
  1
*
 70
     0
  1
*
  1
*
  0
XRECORD
  5
48C
102
{ACAD_REACTORS
330
2C9
102
}
330
2C9
100
AcDbXrecord
280
     1
  1
給水設備平面図
  1
*み*
  1
*
  1
*
 70
     0
  1
*
  1
*
  0
XRECORD
  5
48D
102
{ACAD_REACTORS
330
2C9
102
}
330
2C9
100
AcDbXrecord
280
     1
  1
給水平面
  1
*き*
  1
*
  1
*
 70
     0
  1
*
  1
*
  0
XRECORD
  5
48E
102
{ACAD_REACTORS
330
2C9
102
}
330
2C9
100
AcDbXrecord
280
     1
  1
区画
  1
区画*
  1
*
  1
*
 70
     0
  1
*
  1
*
  0
XRECORD
  5
48F
102
{ACAD_REACTORS
330
2C9
102
}
330
2C9
100
AcDbXrecord
280
     1
  1
躯体
  1
*A21*
  1
*
  1
*
 70
     0
  1
*
  1
*
  0
XRECORD
  5
490
102
{ACAD_REACTORS
330
2C9
102
}
330
2C9
100
AcDbXrecord
280
     1
  1
躯体図
  1
D*
  1
*
  1
*
 70
     0
  1
*
  1
*
  0
XRECORD
  5
491
102
{ACAD_REACTORS
330
2C9
102
}
330
2C9
100
AcDbXrecord
280
     1
  1
空調jv
  1
00i*
  1
*
  1
*
 70
     0
  1
*
  1
*
  0
XRECORD
  5
492
102
{ACAD_REACTORS
330
2C9
102
}
330
2C9
100
AcDbXrecord
280
     1
  1
空調設備図
  1
001*,002*,004*,005*,007*,010*,033*,034*,035*,036*,037*,038*
  1
*
  1
*
 70
     0
  1
*
  1
*
  0
XRECORD
  5
493
102
{ACAD_REACTORS
330
2C9
102
}
330
2C9
100
AcDbXrecord
280
     1
  1
郡川
  1
kijun,kabe,sunpo
  1
*
  1
*
 70
     3
  1
*
  1
*
  0
XRECORD
  5
494
102
{ACAD_REACTORS
330
2C9
102
}
330
2C9
100
AcDbXrecord
280
     1
  1
型枠計画図
  1
001*,002*,003*,004*,005*,006*,007*,010*,012*,050*,051*,055*,056*,057*,058*,059*,060*,061*,062*,063*,064*,065*,066*,067*,068*,069*,070*,071*,072*,073*,074*,075*
  1
*
  1
*
 70
     0
  1
*
  1
*
  0
XRECORD
  5
495
102
{ACAD_REACTORS
330
2C9
102
}
330
2C9
100
AcDbXrecord
280
     1
  1
計画高平面図
  1
*く*
  1
*
  1
*
 70
     0
  1
*
  1
*
  0
XRECORD
  5
496
102
{ACAD_REACTORS
330
2C9
102
}
330
2C9
100
AcDbXrecord
280
     1
  1
計画平面
  1
*け*
  1
*
  1
*
 70
     0
  1
*
  1
*
  0
XRECORD
  5
497
102
{ACAD_REACTORS
330
2C9
102
}
330
2C9
100
AcDbXrecord
280
     1
  1
計画平面図
  1
*け*
  1
*
  1
*
 70
     0
  1
*
  1
*
  0
XRECORD
  5
498
102
{ACAD_REACTORS
330
2C9
102
}
330
2C9
100
AcDbXrecord
280
     1
  1
劇場ﾌﾟﾗｻﾞ
  1
*え*
  1
*
  1
*
 70
     0
  1
*
  1
*
  0
XRECORD
  5
499
102
{ACAD_REACTORS
330
2C9
102
}
330
2C9
100
AcDbXrecord
280
     1
  1
劇場棟
  1
*げ*
  1
*
  1
*
 70
     0
  1
*
  1
*
  0
XRECORD
  5
49A
102
{ACAD_REACTORS
330
2C9
102
}
330
2C9
100
AcDbXrecord
280
     1
  1
建具
  1
*-建
  1
*
  1
*
 70
     0
  1
*
  1
*
  0
XRECORD
  5
49B
102
{ACAD_REACTORS
330
2C9
102
}
330
2C9
100
AcDbXrecord
280
     1
  1
建築接地図
  1
A01*
  1
*
  1
*
 70
     0
  1
*
  1
*
  0
XRECORD
  5
49C
102
{ACAD_REACTORS
330
2C9
102
}
330
2C9
100
AcDbXrecord
280
     1
  1
見上げ
  1
*U
  1
*
  1
*
 70
     0
  1
*
  1
*
  0
XRECORD
  5
49D
102
{ACAD_REACTORS
330
2C9
102
}
330
2C9
100
AcDbXrecord
280
     1
  1
現在非表示画層
  1
*
  1
*
  1
*
 70
     3
  1
*
  1
*
  0
XRECORD
  5
49E
102
{ACAD_REACTORS
330
2C9
102
}
330
2C9
100
AcDbXrecord
280
     1
  1
光天井
  1
*-光
  1
*
  1
*
 70
     0
  1
*
  1
*
  0
XRECORD
  5
49F
102
{ACAD_REACTORS
330
2C9
102
}
330
2C9
100
AcDbXrecord
280
     1
  1
公園
  1
K*
  1
*
  1
*
 70
     0
  1
*
  1
*
  0
XRECORD
  5
4A0
102
{ACAD_REACTORS
330
2C9
102
}
330
2C9
100
AcDbXrecord
280
     1
  1
工事区分図
  1
*じ*
  1
*
  1
*
 70
     0
  1
*
  1
*
  0
XRECORD
  5
4A1
102
{ACAD_REACTORS
330
2C9
102
}
330
2C9
100
AcDbXrecord
280
     1
  1
工事区分図AB
  1
*α*
  1
*
  1
*
 70
     0
  1
*
  1
*
  0
XRECORD
  5
4A2
102
{ACAD_REACTORS
330
2C9
102
}
330
2C9
100
AcDbXrecord
280
     1
  1
工事区分図CD
  1
*β*
  1
*
  1
*
 70
     0
  1
*
  1
*
  0
XRECORD
  5
4A3
102
{ACAD_REACTORS
330
2C9
102
}
330
2C9
100
AcDbXrecord
280
     1
  1
高さ
  1
204-TEXT,東西道路*
  1
*
  1
*
 70
     0
  1
*
  1
*
  0
XRECORD
  5
4A4
102
{ACAD_REACTORS
330
2C9
102
}
330
2C9
100
AcDbXrecord
280
     1
  1
高木植栽平面
  1
*こ*
  1
*
  1
*
 70
     0
  1
*
  1
*
  0
XRECORD
  5
4A5
102
{ACAD_REACTORS
330
2C9
102
}
330
2C9
100
AcDbXrecord
280
     1
  1
高木平面図
  1
*こ*
  1
*
  1
*
 70
     0
  1
*
  1
*
  0
XRECORD
  5
4A6
102
{ACAD_REACTORS
330
2C9
102
}
330
2C9
100
AcDbXrecord
280
     1
  1
座席のみ
  1
*
  1
*
  1
*
 70
     0
  1
*
  1
*
  0
XRECORD
  5
4A7
102
{ACAD_REACTORS
330
2C9
102
}
330
2C9
100
AcDbXrecord
280
     1
  1
作業
  1
100-*,地区*,
  1
*
  1
*
 70
     1
  1
*
  1
*
  0
XRECORD
  5
4A8
102
{ACAD_REACTORS
330
2C9
102
}
330
2C9
100
AcDbXrecord
280
     1
  1
参考
  1
六*
  1
*
  1
*
 70
     0
  1
*
  1
*
  0
XRECORD
  5
4A9
102
{ACAD_REACTORS
330
2C9
102
}
330
2C9
100
AcDbXrecord
280
     1
  1
山止根切計画図
  1
001*,002*,003*,004*,005*,007*,012*,049*,050*,051*,052*,053*,054*,055*,056*,057*,058*,059*,060*,061*,062*,064*,065*,066*,067*,068*,069*,070*,071*,072*,073*,074*,075*
  1
*
  1
*
 70
     0
  1
*
  1
*
  0
XRECORD
  5
4AA
102
{ACAD_REACTORS
330
2C9
102
}
330
2C9
100
AcDbXrecord
280
     1
  1
仕
  1
*_仕
  1
*
  1
*
 70
     0
  1
*
  1
*
  0
XRECORD
  5
4AB
102
{ACAD_REACTORS
330
2C9
102
}
330
2C9
100
AcDbXrecord
280
     1
  1
仕上
  1
*-2
  1
*
  1
*
 70
     0
  1
*
  1
*
  0
XRECORD
  5
4AC
102
{ACAD_REACTORS
330
2C9
102
}
330
2C9
100
AcDbXrecord
280
     1
  1
仕上図
  1
C*
  1
*
  1
*
 70
     0
  1
*
  1
*
  0
XRECORD
  5
4AD
102
{ACAD_REACTORS
330
2C9
102
}
330
2C9
100
AcDbXrecord
280
     1
  1
使用中
  1
使用中
  1
*
  1
*
 70
     1
  1
*
  1
*
  0
XRECORD
  5
4AE
102
{ACAD_REACTORS
330
2C9
102
}
330
2C9
100
AcDbXrecord
280
     1
  1
施設配置図
  1
*し*
  1
*
  1
*
 70
     0
  1
*
  1
*
  0
XRECORD
  5
4AF
102
{ACAD_REACTORS
330
2C9
102
}
330
2C9
100
AcDbXrecord
280
     1
  1
施設平面
  1
*し*
  1
*
  1
*
 70
     0
  1
*
  1
*
  0
XRECORD
  5
4B0
102
{ACAD_REACTORS
330
2C9
102
}
330
2C9
100
AcDbXrecord
280
     1
  1
施設平面図
  1
*し*
  1
*
  1
*
 70
     0
  1
*
  1
*
  0
XRECORD
  5
4B1
102
{ACAD_REACTORS
330
2C9
102
}
330
2C9
100
AcDbXrecord
280
     1
  1
紫
  1
*
  1
Magenta
  1
*
 70
     0
  1
*
  1
*
  0
XRECORD
  5
4B2
102
{ACAD_REACTORS
330
2C9
102
}
330
2C9
100
AcDbXrecord
280
     1
  1
床伏図
  1
*U*,20,Z20,Z22,Z23
  1
*
  1
*
 70
     0
  1
*
  1
*
  0
XRECORD
  5
4B3
102
{ACAD_REACTORS
330
2C9
102
}
330
2C9
100
AcDbXrecord
280
     1
  1
昇降機
  1
T*
  1
*
  1
*
 70
     0
  1
*
  1
*
  0
XRECORD
  5
4B4
102
{ACAD_REACTORS
330
2C9
102
}
330
2C9
100
AcDbXrecord
280
     1
  1
照明
  1
*ら*,*れ*
  1
*
  1
*
 70
     0
  1
*
  1
*
  0
XRECORD
  5
4B5
102
{ACAD_REACTORS
330
2C9
102
}
330
2C9
100
AcDbXrecord
280
     1
  1
照明Ｃ１
  1
*ら*
  1
*
  1
*
 70
     0
  1
*
  1
*
  0
XRECORD
  5
4B6
102
{ACAD_REACTORS
330
2C9
102
}
330
2C9
100
AcDbXrecord
280
     1
  1
照明Ｃ２
  1
*れ*
  1
*
  1
*
 70
     0
  1
*
  1
*
  0
XRECORD
  5
4B7
102
{ACAD_REACTORS
330
2C9
102
}
330
2C9
100
AcDbXrecord
280
     1
  1
照明配置図
  1
*め*
  1
*
  1
*
 70
     0
  1
*
  1
*
  0
XRECORD
  5
4B8
102
{ACAD_REACTORS
330
2C9
102
}
330
2C9
100
AcDbXrecord
280
     1
  1
詳細
  1
詳細*
  1
*
  1
*
 70
     0
  1
*
  1
*
  0
XRECORD
  5
4B9
102
{ACAD_REACTORS
330
2C9
102
}
330
2C9
100
AcDbXrecord
280
     1
  1
詳細図
  1
*u*,*w*,*y*,*x*,*s*,*V*,06
  1
*
  1
*
 70
     0
  1
*
  1
*
  0
XRECORD
  5
4BA
102
{ACAD_REACTORS
330
2C9
102
}
330
2C9
100
AcDbXrecord
280
     1
  1
上階躯体図
  1
KUTAI-Z,SIZE,HOJO,ZATU,HATCH,BR-S,KABE2,KABE,MAJIKIRI,KOBARI-S,KOBARI-R,HARI-S,HARI-R,HASIRA-S,HASIRA-R,MOJI-K2,FL-FUGO,FUGO-W,SUNPO-K2,SUNPO,SUNPO2,SUNPO1,KIJUN2,KIJUN1,KIJUN,
  1
*
  1
*
 70
     0
  1
*
  1
*
  0
XRECORD
  5
4BB
102
{ACAD_REACTORS
330
2C9
102
}
330
2C9
100
AcDbXrecord
280
     1
  1
植栽
  1
*木*
  1
*
  1
*
 70
     0
  1
*
  1
*
  0
XRECORD
  5
4BC
102
{ACAD_REACTORS
330
2C9
102
}
330
2C9
100
AcDbXrecord
280
     1
  1
植栽基盤平面
  1
*ど*
  1
*
  1
*
 70
     0
  1
*
  1
*
  0
XRECORD
  5
4BD
102
{ACAD_REACTORS
330
2C9
102
}
330
2C9
100
AcDbXrecord
280
     1
  1
植栽現況
  1
*植*
  1
*
  1
*
 70
     0
  1
*
  1
*
  0
XRECORD
  5
4BE
102
{ACAD_REACTORS
330
2C9
102
}
330
2C9
100
AcDbXrecord
280
     1
  1
植栽高木AB
  1
*λ*
  1
*
  1
*
 70
     0
  1
*
  1
*
  0
XRECORD
  5
4BF
102
{ACAD_REACTORS
330
2C9
102
}
330
2C9
100
AcDbXrecord
280
     1
  1
植栽高木CD
  1
*ｑ*
  1
*
  1
*
 70
     0
  1
*
  1
*
  0
XRECORD
  5
4C0
102
{ACAD_REACTORS
330
2C9
102
}
330
2C9
100
AcDbXrecord
280
     1
  1
植栽低木AB
  1
*γ*
  1
*
  1
*
 70
     0
  1
*
  1
*
  0
XRECORD
  5
4C1
102
{ACAD_REACTORS
330
2C9
102
}
330
2C9
100
AcDbXrecord
280
     1
  1
植栽低木ＣＤ
  1
*Θ*
  1
*
  1
*
 70
     0
  1
*
  1
*
  0
XRECORD
  5
4C2
102
{ACAD_REACTORS
330
2C9
102
}
330
2C9
100
AcDbXrecord
280
     1
  1
色番号8
  1
*
  1
8
  1
*
 70
     0
  1
*
  1
*
  0
XRECORD
  5
4C3
102
{ACAD_REACTORS
330
2C9
102
}
330
2C9
100
AcDbXrecord
280
     1
  1
申請用
  1
*あ*,*き*,*グ*,*み*,*オ*,*ピ*,*92*
  1
*
  1
*
 70
     0
  1
*
  1
*
  0
XRECORD
  5
4C4
102
{ACAD_REACTORS
330
2C9
102
}
330
2C9
100
AcDbXrecord
280
     1
  1
芯
  1
*芯
  1
*
  1
*
 70
     0
  1
*
  1
*
  0
XRECORD
  5
4C5
102
{ACAD_REACTORS
330
2C9
102
}
330
2C9
100
AcDbXrecord
280
     1
  1
芯関係
  1
001*,002*,032*
  1
*
  1
*
 70
     0
  1
*
  1
*
  0
XRECORD
  5
4C6
102
{ACAD_REACTORS
330
2C9
102
}
330
2C9
100
AcDbXrecord
280
     1
  1
水
  1
*
  1
cyan
  1
*
 70
     0
  1
*
  1
*
  0
XRECORD
  5
4C7
102
{ACAD_REACTORS
330
2C9
102
}
330
2C9
100
AcDbXrecord
280
     1
  1
水色
  1
*
  1
Cyan
  1
*
 70
     0
  1
*
  1
*
  0
XRECORD
  5
4C8
102
{ACAD_REACTORS
330
2C9
102
}
330
2C9
100
AcDbXrecord
280
     1
  1
寸法
  1
*寸法
  1
*
  1
*
 70
     0
  1
*
  1
*
  0
XRECORD
  5
4C9
102
{ACAD_REACTORS
330
2C9
102
}
330
2C9
100
AcDbXrecord
280
     1
  1
製作
  1
B*
  1
*
  1
*
 70
     0
  1
*
  1
*
  0
XRECORD
  5
4CA
102
{ACAD_REACTORS
330
2C9
102
}
330
2C9
100
AcDbXrecord
280
     1
  1
製作-躯体
  1
BS*
  1
*
  1
*
 70
     0
  1
*
  1
*
  0
XRECORD
  5
4CB
102
{ACAD_REACTORS
330
2C9
102
}
330
2C9
100
AcDbXrecord
280
     1
  1
製作-建築
  1
BD*
  1
*
  1
*
 70
     0
  1
*
  1
*
  0
XRECORD
  5
4CC
102
{ACAD_REACTORS
330
2C9
102
}
330
2C9
100
AcDbXrecord
280
     1
  1
製作-昇降機
  1
BT*
  1
*
  1
*
 70
     0
  1
*
  1
*
  0
XRECORD
  5
4CD
102
{ACAD_REACTORS
330
2C9
102
}
330
2C9
100
AcDbXrecord
280
     1
  1
青
  1
*
  1
blue
  1
*
 70
     0
  1
*
  1
*
  0
XRECORD
  5
4CE
102
{ACAD_REACTORS
330
2C9
102
}
330
2C9
100
AcDbXrecord
280
     1
  1
設備
  1
E*,P*,M*
  1
*
  1
*
 70
     0
  1
*
  1
*
  0
XRECORD
  5
4CF
102
{ACAD_REACTORS
330
2C9
102
}
330
2C9
100
AcDbXrecord
280
     1
  1
設備プロット
  1
02*
  1
*
  1
*
 70
     0
  1
*
  1
*
  0
XRECORD
  5
4D0
102
{ACAD_REACTORS
330
2C9
102
}
330
2C9
100
AcDbXrecord
280
     1
  1
全階平面図
  1
*
  1
*
  1
*
 70
     0
  1
*
  1
*
  0
XRECORD
  5
4D1
102
{ACAD_REACTORS
330
2C9
102
}
330
2C9
100
AcDbXrecord
280
     1
  1
総合仮設図
  1
001*,002*,003*,004*,005*,007*,012*,015*,016*,017*,018*,019*,020*,021*,049*,050*,051*,052*,053*,054*,055*,056*,057*,058*,059*,060*,061*,062*,063*,064*,065*,066*,067*,068*,069*,070*,071*,072*,073*,074*,075*
  1
*
  1
*
 70
     0
  1
*
  1
*
  0
XRECORD
  5
4D2
102
{ACAD_REACTORS
330
2C9
102
}
330
2C9
100
AcDbXrecord
280
     1
  1
総合図
  1
*z*,*u*,*w*,*y*,*x*,*V*,06
  1
*
  1
*
 70
     0
  1
*
  1
*
  0
XRECORD
  5
4D3
102
{ACAD_REACTORS
330
2C9
102
}
330
2C9
100
AcDbXrecord
280
     1
  1
足場計画図
  1
001*,002*,003*,004*,005*,007*,012*,015*,049*,050*,051*,055*,056*,057*,058*,059*,060*,061*,062*,064*,065*,066*,067*,068*,069*,070*,071*,072*,073*,074*,075*
  1
*
  1
*
 70
     0
  1
*
  1
*
  0
XRECORD
  5
4D4
102
{ACAD_REACTORS
330
2C9
102
}
330
2C9
100
AcDbXrecord
280
     1
  1
地下埋設
  1
*ち*
  1
*
  1
*
 70
     0
  1
*
  1
*
  0
XRECORD
  5
4D5
102
{ACAD_REACTORS
330
2C9
102
}
330
2C9
100
AcDbXrecord
280
     1
  1
中野
  1
中野*
  1
*
  1
*
 70
     0
  1
*
  1
*
  0
XRECORD
  5
4D6
102
{ACAD_REACTORS
330
2C9
102
}
330
2C9
100
AcDbXrecord
280
     1
  1
低木植栽平面
  1
*て*
  1
*
  1
*
 70
     0
  1
*
  1
*
  0
XRECORD
  5
4D7
102
{ACAD_REACTORS
330
2C9
102
}
330
2C9
100
AcDbXrecord
280
     1
  1
低木平面図
  1
*て*
  1
*
  1
*
 70
     0
  1
*
  1
*
  0
XRECORD
  5
4D8
102
{ACAD_REACTORS
330
2C9
102
}
330
2C9
100
AcDbXrecord
280
     1
  1
鉄骨
  1
*-1
  1
*
  1
*
 70
     0
  1
*
  1
*
  0
XRECORD
  5
4D9
102
{ACAD_REACTORS
330
2C9
102
}
330
2C9
100
AcDbXrecord
280
     1
  1
鉄骨建方計画図
  1
001*,002*,003*,004*,005*,007*,012*,013*,049*,050*,051*,052*,053*,054*,055*,056*,057*,058*,059*,060*,061*,062*,063*,064*,065*,066*,067*,068*,069*,070*,071*,072*,073*,074*,075*
  1
*
  1
*
 70
     0
  1
*
  1
*
  0
XRECORD
  5
4DA
102
{ACAD_REACTORS
330
2C9
102
}
330
2C9
100
AcDbXrecord
280
     1
  1
天井インサート図
  1
001*,002*,004*,010*,022*,023*,024*,025*,026*,027*,028*,029*,037*,042*
  1
*
  1
*
 70
     0
  1
*
  1
*
  0
XRECORD
  5
4DB
102
{ACAD_REACTORS
330
2C9
102
}
330
2C9
100
AcDbXrecord
280
     1
  1
天井総合図
  1
001*,002*,004*,005*,007*,010*,022*,023*,024*,025*,026*,027*,028*,029*,030*,031*,033*,035*,036*,037*,039*,041*,042*,044*,046*,047*
  1
*
  1
*
 70
     0
  1
*
  1
*
  0
XRECORD
  5
4DC
102
{ACAD_REACTORS
330
2C9
102
}
330
2C9
100
AcDbXrecord
280
     1
  1
天井伏図
  1
0,00*,01*,03*,05*,1*,2*,3*,4*,7*,9*
  1
*
  1
*
 70
     0
  1
*
  1
*
  0
XRECORD
  5
4DD
102
{ACAD_REACTORS
330
2C9
102
}
330
2C9
100
AcDbXrecord
280
     1
  1
天伏
  1
*05
  1
*
  1
*
 70
     0
  1
*
  1
*
  0
XRECORD
  5
4DE
102
{ACAD_REACTORS
330
2C9
102
}
330
2C9
100
AcDbXrecord
280
     1
  1
電気設備図
  1
001*,002*,004*,005*,007*,010*,030*,031*,044*,045*,046*,047*,048*
  1
*
  1
*
 70
     0
  1
*
  1
*
  0
XRECORD
  5
4DF
102
{ACAD_REACTORS
330
2C9
102
}
330
2C9
100
AcDbXrecord
280
     1
  1
土壌改良
  1
*ど*
  1
*
  1
*
 70
     0
  1
*
  1
*
  0
XRECORD
  5
4E0
102
{ACAD_REACTORS
330
2C9
102
}
330
2C9
100
AcDbXrecord
280
     1
  1
土木計画平面図
  1
*^ *,*B*,*0*,*排*,*法*,*ﾊ*,*b*
  1
*
  1
*
 70
     0
  1
*
  1
*
  0
XRECORD
  5
4E1
102
{ACAD_REACTORS
330
2C9
102
}
330
2C9
100
AcDbXrecord
280
     1
  1
道路
  1
R*
  1
*
  1
*
 70
     0
  1
*
  1
*
  0
XRECORD
  5
4E2
102
{ACAD_REACTORS
330
2C9
102
}
330
2C9
100
AcDbXrecord
280
     1
  1
道路関係図
  1
001*,002*,003*,004*,007*,012*,015*,016*,017*,018*,019*,020*,021*,049*,050*,051*,052*,053*,054*,055*,056*,057*,058*,059*,060*,061*,062*,063*,064*,065*,066*,067*,068*,069*,070*,071*,072*,073*,074*,075*
  1
*
  1
*
 70
     0
  1
*
  1
*
  0
XRECORD
  5
4E3
102
{ACAD_REACTORS
330
2C9
102
}
330
2C9
100
AcDbXrecord
280
     1
  1
排水
  1
*は*
  1
*
  1
*
 70
     0
  1
*
  1
*
  0
XRECORD
  5
4E4
102
{ACAD_REACTORS
330
2C9
102
}
330
2C9
100
AcDbXrecord
280
     1
  1
排水設備平面図
  1
*は*
  1
*
  1
*
 70
     0
  1
*
  1
*
  0
XRECORD
  5
4E5
102
{ACAD_REACTORS
330
2C9
102
}
330
2C9
100
AcDbXrecord
280
     1
  1
排水平面
  1
*は*
  1
*
  1
*
 70
     0
  1
*
  1
*
  0
XRECORD
  5
4E6
102
{ACAD_REACTORS
330
2C9
102
}
330
2C9
100
AcDbXrecord
280
     1
  1
配管
  1
PIPE*
  1
*
  1
*
 70
     0
  1
*
  1
*
  0
XRECORD
  5
4E7
102
{ACAD_REACTORS
330
2C9
102
}
330
2C9
100
AcDbXrecord
280
     1
  1
非表示
  1
*
  1
*
  1
*
 70
     3
  1
*
  1
*
  0
XRECORD
  5
4E8
102
{ACAD_REACTORS
330
2C9
102
}
330
2C9
100
AcDbXrecord
280
     1
  1
非表示ﾚｲﾔｰ
  1
*-z
  1
*
  1
*
 70
     0
  1
*
  1
*
  0
XRECORD
  5
4E9
102
{ACAD_REACTORS
330
2C9
102
}
330
2C9
100
AcDbXrecord
280
     1
  1
表示
  1
*
  1
*
  1
*
 70
     1
  1
*
  1
*
  0
XRECORD
  5
4EA
102
{ACAD_REACTORS
330
2C9
102
}
330
2C9
100
AcDbXrecord
280
     1
  1
表示・非表示
  1
*
  1
*
  1
*
 70
     1
  1
*
  1
*
  0
XRECORD
  5
4EB
102
{ACAD_REACTORS
330
2C9
102
}
330
2C9
100
AcDbXrecord
280
     1
  1
表示2
  1
*
  1
*
  1
*
 70
   257
  1
*
  1
*
  0
XRECORD
  5
4EC
102
{ACAD_REACTORS
330
2C9
102
}
330
2C9
100
AcDbXrecord
280
     1
  1
分割枠
  1
枠*
  1
*
  1
*
 70
     0
  1
*
  1
*
  0
XRECORD
  5
4ED
102
{ACAD_REACTORS
330
2C9
102
}
330
2C9
100
AcDbXrecord
280
     1
  1
平面詳細図
  1
SUNPO-S,SIZE,HOJO,ZATU,HATCH,HWAKU,HMOJI,WARITUKE-T,WARITUKE-Y,WARITUKE-K,TATEGU1,TATEGU,BR-S,MAJIKIRI,KABE2,SIAGE,KABE1,KABE,KOBARI-S,KOBARI-R,HARI-S,HARI-R,HASIRA-S,HASIRA-R,MOJI,SHITUMEI,LABEL,FL-FUGO,FUGO-W,SUNPO,SUNPO2,SUNPO1,KIJUN2,KIJUN1,KIJUN
  1
*
  1
*
 70
     0
  1
*
  1
*
  0
XRECORD
  5
4EE
102
{ACAD_REACTORS
330
2C9
102
}
330
2C9
100
AcDbXrecord
280
     1
  1
平面図
  1
*HMOJI,*HOJO2,*HOJO3,*SINSEI,*FUGOT
  1
*
  1
*
 70
     0
  1
*
  1
*
  0
XRECORD
  5
4EF
102
{ACAD_REACTORS
330
2C9
102
}
330
2C9
100
AcDbXrecord
280
     1
  1
平面総合図
  1
001*,002*,004*,010*,013*,014*,015*,016*,017*,018*,019*,020*,021*,030*,031*,034*,040*,045*
  1
*
  1
*
 70
     0
  1
*
  1
*
  0
XRECORD
  5
4F0
102
{ACAD_REACTORS
330
2C9
102
}
330
2C9
100
AcDbXrecord
280
     1
  1
変更分
  1
六*
  1
*
  1
*
 70
     0
  1
*
  1
*
  0
XRECORD
  5
4F1
102
{ACAD_REACTORS
330
2C9
102
}
330
2C9
100
AcDbXrecord
280
     1
  1
舗装平面
  1
*ほ*
  1
*
  1
*
 70
     0
  1
*
  1
*
  0
XRECORD
  5
4F2
102
{ACAD_REACTORS
330
2C9
102
}
330
2C9
100
AcDbXrecord
280
     1
  1
舗装平面C1
  1
*α*
  1
*
  1
*
 70
     0
  1
*
  1
*
  0
XRECORD
  5
4F3
102
{ACAD_REACTORS
330
2C9
102
}
330
2C9
100
AcDbXrecord
280
     1
  1
舗装平面C2
  1
*β*
  1
*
  1
*
 70
     0
  1
*
  1
*
  0
XRECORD
  5
4F4
102
{ACAD_REACTORS
330
2C9
102
}
330
2C9
100
AcDbXrecord
280
     1
  1
舗装平面図
  1
*ほ*
  1
*
  1
*
 70
     0
  1
*
  1
*
  0
XRECORD
  5
4F5
102
{ACAD_REACTORS
330
2C9
102
}
330
2C9
100
AcDbXrecord
280
     1
  1
法規チェック－区画
  1
*92
  1
*
  1
*
 70
     0
  1
*
  1
*
  0
XRECORD
  5
4F6
102
{ACAD_REACTORS
330
2C9
102
}
330
2C9
100
AcDbXrecord
280
     1
  1
法規チェック－範囲
  1
*0
  1
*
  1
*
 70
     0
  1
*
  1
*
  0
XRECORD
  5
4F7
102
{ACAD_REACTORS
330
2C9
102
}
330
2C9
100
AcDbXrecord
280
     1
  1
鳳文字入力
  1
*
  1
*
  1
*
 70
     0
  1
*
  1
*
  0
XRECORD
  5
4F8
102
{ACAD_REACTORS
330
2C9
102
}
330
2C9
100
AcDbXrecord
280
     1
  1
防災
  1
B*
  1
*
  1
*
 70
   768
  1
*
  1
*
  0
XRECORD
  5
4F9
102
{ACAD_REACTORS
330
2C9
102
}
330
2C9
100
AcDbXrecord
280
     1
  1
名称
  1
*名称
  1
*
  1
*
 70
     0
  1
*
  1
*
  0
XRECORD
  5
4FA
102
{ACAD_REACTORS
330
2C9
102
}
330
2C9
100
AcDbXrecord
280
     1
  1
面積
  1
*
  1
*
  1
*
 70
     3
  1
*
  1
*
  0
XRECORD
  5
4FB
102
{ACAD_REACTORS
330
2C9
102
}
330
2C9
100
AcDbXrecord
280
     1
  1
擁壁平面図
  1
*よ*
  1
*
  1
*
 70
     0
  1
*
  1
*
  0
XRECORD
  5
4FC
102
{ACAD_REACTORS
330
2C9
102
}
330
2C9
100
AcDbXrecord
280
     1
  1
用途色塗
  1
*1-*
  1
*
  1
*
 70
     0
  1
*
  1
*
  0
XRECORD
  5
4FD
102
{ACAD_REACTORS
330
2C9
102
}
330
2C9
100
AcDbXrecord
280
     1
  1
立面図
  1
*HOJO2
  1
*
  1
*
 70
     0
  1
*
  1
*
  0
XRECORD
  5
4FE
102
{ACAD_REACTORS
330
2C9
102
}
330
2C9
100
AcDbXrecord
280
     1
  1
梁
  1
0,08*,17*,梁*
  1
*
  1
*
 70
     0
  1
*
  1
*
  0
XRECORD
  5
4FF
102
{ACAD_REACTORS
330
2C9
102
}
330
2C9
100
AcDbXrecord
280
     1
  1
緑
  1
*
  1
Green
  1
*
 70
     0
  1
*
  1
*
  0
ENDSEC
  0
EOF
